  0
SECTION
  2
HEADER
  9
$ACADVER
  1
AC1015
  9
$ACADMAINTVER
 70
     6
  9
$DWGCODEPAGE
  3
ANSI_932
  9
$INSBASE
 10
0.0
 20
0.0
 30
0.0
  9
$EXTMIN
 10
1.000000000000000E+20
 20
1.000000000000000E+20
 30
1.000000000000000E+20
  9
$EXTMAX
 10
-1.000000000000000E+20
 20
-1.000000000000000E+20
 30
-1.000000000000000E+20
  9
$LIMMIN
 10
0.0
 20
0.0
  9
$LIMMAX
 10
420.0
 20
297.0
  9
$ORTHOMODE
 70
     0
  9
$REGENMODE
 70
     1
  9
$FILLMODE
 70
     1
  9
$QTEXTMODE
 70
     0
  9
$MIRRTEXT
 70
     1
  9
$LTSCALE
 40
1.0
  9
$ATTMODE
 70
     1
  9
$TEXTSIZE
 40
2.5
  9
$TRACEWID
 40
1.0
  9
$TEXTSTYLE
  7
Standard
  9
$CLAYER
  8
0
  9
$CELTYPE
  6
ByLayer
  9
$CECOLOR
 62
   256
  9
$CELTSCALE
 40
1.0
  9
$DISPSILH
 70
     0
  9
$DIMSCALE
 40
1.0
  9
$DIMASZ
 40
2.0
  9
$DIMEXO
 40
0.625
  9
$DIMDLI
 40
3.75
  9
$DIMRND
 40
0.0
  9
$DIMDLE
 40
0.0
  9
$DIMEXE
 40
1.25
  9
$DIMTP
 40
0.0
  9
$DIMTM
 40
0.0
  9
$DIMTXT
 40
3.0
  9
$DIMCEN
 40
2.5
  9
$DIMTSZ
 40
0.0
  9
$DIMTOL
 70
     0
  9
$DIMLIM
 70
     0
  9
$DIMTIH
 70
     0
  9
$DIMTOH
 70
     0
  9
$DIMSE1
 70
     0
  9
$DIMSE2
 70
     0
  9
$DIMTAD
 70
     1
  9
$DIMZIN
 70
     8
  9
$DIMBLK
  1

  9
$DIMASO
 70
     1
  9
$DIMSHO
 70
     1
  9
$DIMPOST
  1

  9
$DIMAPOST
  1

  9
$DIMALT
 70
     0
  9
$DIMALTD
 70
     3
  9
$DIMALTF
 40
0.03937007874016
  9
$DIMLFAC
 40
1.0
  9
$DIMTOFL
 70
     1
  9
$DIMTVP
 40
0.0
  9
$DIMTIX
 70
     0
  9
$DIMSOXD
 70
     0
  9
$DIMSAH
 70
     0
  9
$DIMBLK1
  1

  9
$DIMBLK2
  1

  9
$DIMSTYLE
  2
ISO-25
  9
$DIMCLRD
 70
     0
  9
$DIMCLRE
 70
     7
  9
$DIMCLRT
 70
     0
  9
$DIMTFAC
 40
1.0
  9
$DIMGAP
 40
0.625
  9
$DIMJUST
 70
     0
  9
$DIMSD1
 70
     0
  9
$DIMSD2
 70
     0
  9
$DIMTOLJ
 70
     0
  9
$DIMTZIN
 70
     8
  9
$DIMALTZ
 70
     0
  9
$DIMALTTZ
 70
     0
  9
$DIMUPT
 70
     0
  9
$DIMDEC
 70
     2
  9
$DIMTDEC
 70
     2
  9
$DIMALTU
 70
     2
  9
$DIMALTTD
 70
     3
  9
$DIMTXSTY
  7
Standard
  9
$DIMAUNIT
 70
     0
  9
$DIMADEC
 70
     0
  9
$DIMALTRND
 40
0.0
  9
$DIMAZIN
 70
     0
  9
$DIMDSEP
 70
    46
  9
$DIMATFIT
 70
     3
  9
$DIMFRAC
 70
     0
  9
$DIMLDRBLK
  1

  9
$DIMLUNIT
 70
     2
  9
$DIMLWD
 70
    -2
  9
$DIMLWE
 70
     9
  9
$DIMTMOVE
 70
     0
  9
$LUNITS
 70
     2
  9
$LUPREC
 70
     4
  9
$SKETCHINC
 40
1.0
  9
$FILLETRAD
 40
10.0
  9
$AUNITS
 70
     0
  9
$AUPREC
 70
     0
  9
$MENU
  1
.
  9
$ELEVATION
 40
0.0
  9
$PELEVATION
 40
0.0
  9
$THICKNESS
 40
0.0
  9
$LIMCHECK
 70
     0
  9
$CHAMFERA
 40
0.1
  9
$CHAMFERB
 40
0.1
  9
$CHAMFERC
 40
20.0
  9
$CHAMFERD
 40
0.0
  9
$SKPOLY
 70
     0
  9
$TDCREATE
 40
2454873.622250069
  9
$TDUCREATE
 40
2454873.247250069
  9
$TDUPDATE
 40
2458677.621685289
  9
$TDUUPDATE
 40
2458677.246685289
  9
$TDINDWG
 40
0.3778243634
  9
$TDUSRTIMER
 40
0.3778243634
  9
$USRTIMER
 70
     1
  9
$ANGBASE
 50
0.0
  9
$ANGDIR
 70
     0
  9
$PDMODE
 70
     0
  9
$PDSIZE
 40
0.0
  9
$PLINEWID
 40
0.0
  9
$SPLFRAME
 70
     0
  9
$SPLINETYPE
 70
     6
  9
$SPLINESEGS
 70
     8
  9
$HANDSEED
  5
1431
  9
$SURFTAB1
 70
     6
  9
$SURFTAB2
 70
     6
  9
$SURFTYPE
 70
     6
  9
$SURFU
 70
     6
  9
$SURFV
 70
     6
  9
$UCSBASE
  2

  9
$UCSNAME
  2

  9
$UCSORG
 10
0.0
 20
0.0
 30
0.0
  9
$UCSXDIR
 10
1.0
 20
0.0
 30
0.0
  9
$UCSYDIR
 10
0.0
 20
1.0
 30
0.0
  9
$UCSORTHOREF
  2

  9
$UCSORTHOVIEW
 70
     0
  9
$UCSORGTOP
 10
0.0
 20
0.0
 30
0.0
  9
$UCSORGBOTTOM
 10
0.0
 20
0.0
 30
0.0
  9
$UCSORGLEFT
 10
0.0
 20
0.0
 30
0.0
  9
$UCSORGRIGHT
 10
0.0
 20
0.0
 30
0.0
  9
$UCSORGFRONT
 10
0.0
 20
0.0
 30
0.0
  9
$UCSORGBACK
 10
0.0
 20
0.0
 30
0.0
  9
$PUCSBASE
  2

  9
$PUCSNAME
  2

  9
$PUCSORG
 10
0.0
 20
0.0
 30
0.0
  9
$PUCSXDIR
 10
1.0
 20
0.0
 30
0.0
  9
$PUCSYDIR
 10
0.0
 20
1.0
 30
0.0
  9
$PUCSORTHOREF
  2

  9
$PUCSORTHOVIEW
 70
     0
  9
$PUCSORGTOP
 10
0.0
 20
0.0
 30
0.0
  9
$PUCSORGBOTTOM
 10
0.0
 20
0.0
 30
0.0
  9
$PUCSORGLEFT
 10
0.0
 20
0.0
 30
0.0
  9
$PUCSORGRIGHT
 10
0.0
 20
0.0
 30
0.0
  9
$PUCSORGFRONT
 10
0.0
 20
0.0
 30
0.0
  9
$PUCSORGBACK
 10
0.0
 20
0.0
 30
0.0
  9
$USERI1
 70
     0
  9
$USERI2
 70
     0
  9
$USERI3
 70
     0
  9
$USERI4
 70
     0
  9
$USERI5
 70
     0
  9
$USERR1
 40
0.0
  9
$USERR2
 40
0.0
  9
$USERR3
 40
0.0
  9
$USERR4
 40
0.0
  9
$USERR5
 40
0.0
  9
$WORLDVIEW
 70
     1
  9
$SHADEDGE
 70
     3
  9
$SHADEDIF
 70
    70
  9
$TILEMODE
 70
     0
  9
$MAXACTVP
 70
    64
  9
$PINSBASE
 10
0.0
 20
0.0
 30
0.0
  9
$PLIMCHECK
 70
     0
  9
$PEXTMIN
 10
1.042221639059562
 20
1.08829855961801
 30
0.0
  9
$PEXTMAX
 10
407.757958684845
 20
284.1844718556203
 30
0.0
  9
$PLIMMIN
 10
-5.873748779296875
 20
-5.873749732971191
  9
$PLIMMAX
 10
414.0729064941406
 20
291.0522451400757
  9
$UNITMODE
 70
     0
  9
$VISRETAIN
 70
     1
  9
$PLINEGEN
 70
     0
  9
$PSLTSCALE
 70
     1
  9
$TREEDEPTH
 70
  3020
  9
$CMLSTYLE
  2
Standard
  9
$CMLJUST
 70
     0
  9
$CMLSCALE
 40
20.0
  9
$PROXYGRAPHICS
 70
     1
  9
$MEASUREMENT
 70
     1
  9
$CELWEIGHT
370
    -1
  9
$ENDCAPS
280
     0
  9
$JOINSTYLE
280
     0
  9
$LWDISPLAY
290
     0
  9
$INSUNITS
 70
     4
  9
$HYPERLINKBASE
  1

  9
$STYLESHEET
  1

  9
$XEDIT
290
     1
  9
$CEPSNTYPE
380
     0
  9
$PSTYLEMODE
290
     1
  9
$FINGERPRINTGUID
  2
{951E45A9-2098-449B-99F4-687C375CF490}
  9
$VERSIONGUID
  2
{CE56D9EB-5E30-4B1C-91FD-95C8CF25C2FA}
  9
$EXTNAMES
290
     1
  9
$PSVPSCALE
 40
0.0
  9
$OLESTARTUP
290
     0
  0
ENDSEC
  0
SECTION
  2
CLASSES
  0
CLASS
  1
ACDBDICTIONARYWDFLT
  2
AcDbDictionaryWithDefault
  3
AutoCAD 2000
 90
        0
280
     0
281
     0
  0
CLASS
  1
ACDBPLACEHOLDER
  2
AcDbPlaceHolder
  3
AutoCAD 2000
 90
        0
280
     0
281
     0
  0
CLASS
  1
LAYOUT
  2
AcDbLayout
  3
AutoCAD 2000
 90
        0
280
     0
281
     0
  0
CLASS
  1
RASTERVARIABLES
  2
AcDbRasterVariables
  3
ISM
 90
        0
280
     0
281
     0
  0
ENDSEC
  0
SECTION
  2
TABLES
  0
TABLE
  2
VPORT
  5
8
330
0
100
AcDbSymbolTable
 70
     1
  0
VPORT
  5
499
330
8
100
AcDbSymbolTableRecord
100
AcDbViewportTableRecord
  2
*Active
 70
     0
 10
0.0
 20
0.0
 11
1.0
 21
1.0
 12
220.9969276907449
 22
172.7619420735345
 13
0.0
 23
0.0
 14
10.0
 24
10.0
 15
10.0
 25
10.0
 16
0.0
 26
0.0
 36
1.0
 17
0.0
 27
0.0
 37
0.0
 40
274.9023805563505
 41
1.478908188585607
 42
50.0
 43
0.0
 44
0.0
 50
0.0
 51
0.0
 71
     0
 72
   100
 73
     1
 74
     3
 75
     0
 76
     0
 77
     0
 78
     0
281
     0
 65
     1
110
0.0
120
0.0
130
0.0
111
1.0
121
0.0
131
0.0
112
0.0
122
1.0
132
0.0
 79
     0
146
0.0
  0
ENDTAB
  0
TABLE
  2
LTYPE
  5
5
330
0
100
AcDbSymbolTable
 70
     5
  0
LTYPE
  5
14
330
5
100
AcDbSymbolTableRecord
100
AcDbLinetypeTableRecord
  2
ByBlock
 70
     0
  3

 72
    65
 73
     0
 40
0.0
  0
LTYPE
  5
15
330
5
100
AcDbSymbolTableRecord
100
AcDbLinetypeTableRecord
  2
ByLayer
 70
     0
  3

 72
    65
 73
     0
 40
0.0
  0
LTYPE
  5
16
330
5
100
AcDbSymbolTableRecord
100
AcDbLinetypeTableRecord
  2
Continuous
 70
     0
  3
Solid line
 72
    65
 73
     0
 40
0.0
  0
LTYPE
  5
35
330
5
100
AcDbSymbolTableRecord
100
AcDbLinetypeTableRecord
  2
HIDDEN
 70
     0
  3
Hidden __ __ __ __ __ __ __ __ __ __ __ __ __ _
 72
    65
 73
     2
 40
9.524999999999998
 49
6.349999999999999
 74
     0
 49
-3.174999999999999
 74
     0
  0
LTYPE
  5
36
330
5
100
AcDbSymbolTableRecord
100
AcDbLinetypeTableRecord
  2
HIDDEN2
 70
     0
  3
Hidden (.5x) _ _ _ _ _ _ _ _ _ _ _ _ _ _ _ _ _
 72
    65
 73
     2
 40
4.762499999999999
 49
3.174999999999999
 74
     0
 49
-1.587499999999999
 74
     0
  0
LTYPE
  5
37
330
5
100
AcDbSymbolTableRecord
100
AcDbLinetypeTableRecord
  2
CENTER
 70
     0
  3
Center ____ _ ____ _ ____ _ ____ _ ____ _ ____
 72
    65
 73
     4
 40
50.8
 49
31.75
 74
     0
 49
-6.349999999999999
 74
     0
 49
6.349999999999999
 74
     0
 49
-6.349999999999999
 74
     0
  0
LTYPE
  5
38
330
5
100
AcDbSymbolTableRecord
100
AcDbLinetypeTableRecord
  2
PHANTOM2
 70
     0
  3
Phantom (.5x) ___ _ _ ___ _ _ ___ _ _ ___ _ _
 72
    65
 73
     6
 40
31.75
 49
15.875
 74
     0
 49
-3.174999999999999
 74
     0
 49
3.174999999999999
 74
     0
 49
-3.174999999999999
 74
     0
 49
3.174999999999999
 74
     0
 49
-3.174999999999999
 74
     0
  0
ENDTAB
  0
TABLE
  2
LAYER
  5
2
330
0
100
AcDbSymbolTable
 70
    12
  0
LAYER
  5
10
330
2
100
AcDbSymbolTableRecord
100
AcDbLayerTableRecord
  2
0
 70
     0
 62
     7
  6
Continuous
370
     9
390
F
  0
LAYER
  5
39
330
2
100
AcDbSymbolTableRecord
100
AcDbLayerTableRecord
  2
１
 70
     0
 62
     2
  6
Continuous
370
     9
390
F
  0
LAYER
  5
3A
330
2
100
AcDbSymbolTableRecord
100
AcDbLayerTableRecord
  2
２
 70
     0
 62
     3
  6
Continuous
370
    20
390
F
  0
LAYER
  5
3B
330
2
100
AcDbSymbolTableRecord
100
AcDbLayerTableRecord
  2
３
 70
     0
 62
     4
  6
HIDDEN
370
    15
390
F
  0
LAYER
  5
3C
330
2
100
AcDbSymbolTableRecord
100
AcDbLayerTableRecord
  2
４
 70
     0
 62
     4
  6
HIDDEN2
370
    15
390
F
  0
LAYER
  5
3D
330
2
100
AcDbSymbolTableRecord
100
AcDbLayerTableRecord
  2
５
 70
     0
 62
     6
  6
CENTER
370
    15
390
F
  0
LAYER
  5
3E
330
2
100
AcDbSymbolTableRecord
100
AcDbLayerTableRecord
  2
６
 70
     0
 62
     5
  6
PHANTOM2
370
    15
390
F
  0
LAYER
  5
46
330
2
100
AcDbSymbolTableRecord
100
AcDbLayerTableRecord
  2
Defpoints
 70
     0
 62
     7
  6
Continuous
290
     0
370
    -3
390
F
  0
LAYER
  5
AB
330
2
100
AcDbSymbolTableRecord
100
AcDbLayerTableRecord
  2
Object
 70
     0
 62
     3
  6
Continuous
370
    20
390
F
  0
LAYER
  5
3B8
330
2
100
AcDbSymbolTableRecord
100
AcDbLayerTableRecord
  2
1
 70
     0
 62
     7
  6
Continuous
370
     9
390
F
  0
LAYER
  5
3B9
330
2
100
AcDbSymbolTableRecord
100
AcDbLayerTableRecord
  2
2
 70
     0
 62
     3
  6
Continuous
370
    20
390
F
  0
LAYER
  5
EBF
330
2
100
AcDbSymbolTableRecord
100
AcDbLayerTableRecord
  2
CENTER
 70
     0
 62
     7
  6
CENTER
370
     5
390
F
  0
ENDTAB
  0
TABLE
  2
STYLE
  5
3
330
0
100
AcDbSymbolTable
 70
     3
  0
STYLE
  5
11
330
3
100
AcDbSymbolTableRecord
100
AcDbTextStyleTableRecord
  2
Standard
 70
     0
 40
0.0
 41
1.0
 50
0.0
 71
     0
 42
2.5
  3
txt.shx
  4
bigfont.shx
  0
STYLE
  5
34
330
3
100
AcDbSymbolTableRecord
100
AcDbTextStyleTableRecord
  2

 70
     1
 40
0.0
 41
1.0
 50
0.0
 71
     0
 42
2.5
  3
ltypeshp.shx
  4

  0
STYLE
  5
12E
330
3
100
AcDbSymbolTableRecord
100
AcDbTextStyleTableRecord
  2
ｽﾀｲﾙ1
 70
     0
 40
2.5
 41
1.0
 50
0.0
 71
     0
 42
2.5
  3
txt.shx
  4

  0
ENDTAB
  0
TABLE
  2
VIEW
  5
6
330
0
100
AcDbSymbolTable
 70
     0
  0
ENDTAB
  0
TABLE
  2
UCS
  5
7
330
0
100
AcDbSymbolTable
 70
     0
  0
ENDTAB
  0
TABLE
  2
APPID
  5
9
330
0
100
AcDbSymbolTable
 70
     1
  0
APPID
  5
12
330
9
100
AcDbSymbolTableRecord
100
AcDbRegAppTableRecord
  2
ACAD
 70
     0
  0
ENDTAB
  0
TABLE
  2
DIMSTYLE
  5
A
330
0
100
AcDbSymbolTable
 70
     3
100
AcDbDimStyleTable
 71
     1
340
27
  0
DIMSTYLE
105
27
102
{ACAD_REACTORS
330
B89
330
BA0
330
CCD
330
7CA
330
EA4
330
13F9
330
1408
102
}
330
A
100
AcDbSymbolTableRecord
100
AcDbDimStyleTableRecord
  2
ISO-25
 70
     0
 41
2.0
 42
0.625
 43
3.75
 44
1.25
 73
     0
 74
     0
 77
     1
 78
     8
140
3.0
141
2.5
143
0.03937007874016
147
0.625
171
     3
172
     1
177
     7
271
     2
272
     2
274
     3
283
     0
284
     8
340
11
372
     9
  0
DIMSTYLE
105
AC
330
A
100
AcDbSymbolTableRecord
100
AcDbDimStyleTableRecord
  2
JIS
 70
     0
 41
2.5
 42
1.0
 43
7.0
 44
1.0
 73
     0
 74
     0
 77
     1
 78
     8
140
2.5
141
0.0
143
0.0394
147
0.0
172
     1
174
     1
175
     1
340
11
  0
DIMSTYLE
105
EC0
330
A
100
AcDbSymbolTableRecord
100
AcDbDimStyleTableRecord
  2
ｺﾋﾟｰ - ISO-25
 70
     0
 41
2.5
 42
0.625
 43
3.75
 44
1.25
 73
     0
 74
     0
 77
     1
 78
     8
140
2.5
141
2.5
143
0.03937007874016
147
0.625
171
     3
172
     1
271
     2
272
     2
274
     3
283
     0
284
     8
340
11
343
EBA
  0
ENDTAB
  0
TABLE
  2
BLOCK_RECORD
  5
1
330
0
100
AcDbSymbolTable
 70
    13
  0
BLOCK_RECORD
  5
1F
330
1
100
AcDbSymbolTableRecord
100
AcDbBlockTableRecord
  2
*Model_Space
340
22
  0
BLOCK_RECORD
  5
1B
330
1
100
AcDbSymbolTableRecord
100
AcDbBlockTableRecord
  2
*Paper_Space
340
1E
  0
BLOCK_RECORD
  5
23
330
1
100
AcDbSymbolTableRecord
100
AcDbBlockTableRecord
  2
*Paper_Space0
340
26
  0
BLOCK_RECORD
  5
815
330
1
100
AcDbSymbolTableRecord
100
AcDbBlockTableRecord
  2
*D1
340
0
  0
BLOCK_RECORD
  5
B8A
330
1
100
AcDbSymbolTableRecord
100
AcDbBlockTableRecord
  2
*D2
340
0
  0
BLOCK_RECORD
  5
BA1
330
1
100
AcDbSymbolTableRecord
100
AcDbBlockTableRecord
  2
*D3
340
0
  0
BLOCK_RECORD
  5
CCE
330
1
100
AcDbSymbolTableRecord
100
AcDbBlockTableRecord
  2
*D4
340
0
  0
BLOCK_RECORD
  5
EA5
330
1
100
AcDbSymbolTableRecord
100
AcDbBlockTableRecord
  2
*D5
340
0
  0
BLOCK_RECORD
  5
EBA
330
1
100
AcDbSymbolTableRecord
100
AcDbBlockTableRecord
  2
_Dot
340
0
  0
BLOCK_RECORD
  5
13FA
330
1
100
AcDbSymbolTableRecord
100
AcDbBlockTableRecord
  2
*D11
340
0
  0
BLOCK_RECORD
  5
1409
330
1
100
AcDbSymbolTableRecord
100
AcDbBlockTableRecord
  2
*D12
340
0
  0
ENDTAB
  0
ENDSEC
  0
SECTION
  2
BLOCKS
  0
BLOCK
  5
20
330
1F
100
AcDbEntity
  8
0
100
AcDbBlockBegin
  2
*Model_Space
 70
     0
 10
0.0
 20
0.0
 30
0.0
  3
*Model_Space
  1

  0
ENDBLK
  5
21
330
1F
100
AcDbEntity
  8
0
100
AcDbBlockEnd
  0
BLOCK
  5
1C
330
1B
100
AcDbEntity
 67
     1
  8
0
100
AcDbBlockBegin
  2
*Paper_Space
 70
     0
 10
0.0
 20
0.0
 30
0.0
  3
*Paper_Space
  1

  0
ENDBLK
  5
1D
330
1B
100
AcDbEntity
 67
     1
  8
0
100
AcDbBlockEnd
  0
BLOCK
  5
24
330
23
100
AcDbEntity
  8
0
100
AcDbBlockBegin
  2
*Paper_Space0
 70
     0
 10
0.0
 20
0.0
 30
0.0
  3
*Paper_Space0
  1

  0
VIEWPORT
  5
49D
330
23
100
AcDbEntity
  8
0
100
AcDbViewport
 10
0.0
 20
0.0
 30
0.0
 40
0.0
 41
0.0
 69
     0
 12
0.0
 22
0.0
 13
0.0
 23
0.0
 14
10.0
 24
10.0
 15
10.0
 25
10.0
 16
0.0
 26
0.0
 36
1.0
 17
0.0
 27
0.0
 37
0.0
 42
50.0
 43
0.0
 44
0.0
 45
0.0
 50
0.0
 51
0.0
 72
   100
 90
    32800
  1

281
     0
 71
     1
 74
     0
110
0.0
120
0.0
130
0.0
111
1.0
121
0.0
131
0.0
112
0.0
122
1.0
132
0.0
 79
     0
146
0.0
  0
VIEWPORT
  5
49F
330
23
100
AcDbEntity
  8
1
100
AcDbViewport
 10
0.0
 20
0.0
 30
0.0
 40
0.0
 41
0.0
 69
     0
 12
220.9969276907449
 22
172.7619420735345
 13
0.0
 23
0.0
 14
10.0
 24
10.0
 15
10.0
 25
10.0
 16
0.0
 26
0.0
 36
1.0
 17
0.0
 27
0.0
 37
0.0
 42
50.0
 43
0.0
 44
0.0
 45
274.9023805563505
 50
0.0
 51
0.0
 72
   100
 90
    32864
  1

281
     0
 71
     1
 74
     0
110
0.0
120
0.0
130
0.0
111
1.0
121
0.0
131
0.0
112
0.0
122
1.0
132
0.0
 79
     0
146
0.0
  0
ENDBLK
  5
25
330
23
100
AcDbEntity
  8
0
100
AcDbBlockEnd
  0
BLOCK
  5
81F
330
815
100
AcDbEntity
  8
0
100
AcDbBlockBegin
  2
*D1
 70
     1
 10
0.0
 20
0.0
 30
0.0
  3
*D1
  1

  0
LINE
  5
1338
330
815
100
AcDbEntity
  8
0
 62
     7
370
     9
100
AcDbLine
 10
78.47956582972244
 20
173.9786343727043
 30
0.0
 11
115.720888724555
 21
173.9786343727043
 31
0.0
  0
LINE
  5
1339
330
815
100
AcDbEntity
  8
0
 62
     7
370
     9
100
AcDbLine
 10
78.47956582972244
 20
192.9786343727043
 30
0.0
 11
115.720888724555
 21
192.9786343727043
 31
0.0
  0
LINE
  5
133A
330
815
100
AcDbEntity
  8
0
 62
     0
370
    -2
100
AcDbLine
 10
114.470888724555
 20
175.9786343727044
 30
0.0
 11
114.470888724555
 21
190.9786343727043
 31
0.0
  0
MTEXT
  5
133B
330
815
100
AcDbEntity
  8
0
 62
     0
100
AcDbMText
 10
114.5375373292242
 20
199.1778349649192
 30
0.0
 40
3.0
 41
0.0
 71
     5
 72
     1
  1
%%c19
 11
0.0000000000000001
 21
1.0
 31
0.0
 73
     1
 44
1.0
  0
SOLID
  5
133C
330
815
100
AcDbEntity
  8
0
 62
     0
100
AcDbTrace
 10
114.1375553912217
 20
175.9786343727044
 30
0.0
 11
114.8042220578883
 21
175.9786343727044
 31
0.0
 12
114.470888724555
 22
173.9786343727043
 32
0.0
 13
114.470888724555
 23
173.9786343727043
 33
0.0
  0
SOLID
  5
133D
330
815
100
AcDbEntity
  8
0
 62
     0
100
AcDbTrace
 10
114.1375553912217
 20
190.9786343727043
 30
0.0
 11
114.8042220578883
 21
190.9786343727043
 31
0.0
 12
114.470888724555
 22
192.9786343727043
 32
0.0
 13
114.470888724555
 23
192.9786343727043
 33
0.0
  0
POINT
  5
133E
330
815
100
AcDbEntity
  8
Defpoints
 62
     0
100
AcDbPoint
 10
77.85456582972244
 20
173.9786343727043
 30
0.0
  0
POINT
  5
133F
330
815
100
AcDbEntity
  8
Defpoints
 62
     0
100
AcDbPoint
 10
77.85456582972244
 20
192.9786343727043
 30
0.0
  0
POINT
  5
1340
330
815
100
AcDbEntity
  8
Defpoints
 62
     0
100
AcDbPoint
 10
114.470888724555
 20
192.9786343727043
 30
0.0
  0
ENDBLK
  5
820
330
815
100
AcDbEntity
  8
0
100
AcDbBlockEnd
  0
BLOCK
  5
B95
330
B8A
100
AcDbEntity
  8
0
100
AcDbBlockBegin
  2
*D2
 70
     1
 10
0.0
 20
0.0
 30
0.0
  3
*D2
  1

  0
LINE
  5
131B
330
B8A
100
AcDbEntity
  8
0
 62
     7
370
     9
100
AcDbLine
 10
76.18536758857761
 20
192.4490339408219
 30
0.0
 11
76.18536758857761
 21
202.9139849689805
 31
0.0
  0
LINE
  5
131C
330
B8A
100
AcDbEntity
  8
0
 62
     7
370
     9
100
AcDbLine
 10
67.72110164240086
 20
192.4490339408219
 30
0.0
 11
67.72110164240086
 21
202.9139849689805
 31
0.0
  0
LINE
  5
131D
330
B8A
100
AcDbEntity
  8
0
 62
     0
370
    -2
100
AcDbLine
 10
74.18536758857761
 20
201.6639849689805
 30
0.0
 11
69.72110164240087
 21
201.6639849689805
 31
0.0
  0
SOLID
  5
131E
330
B8A
100
AcDbEntity
  8
0
 62
     0
100
AcDbTrace
 10
74.18536758857761
 20
201.9973183023139
 30
0.0
 11
74.18536758857761
 21
201.3306516356472
 31
0.0
 12
76.18536758857761
 22
201.6639849689805
 32
0.0
 13
76.18536758857761
 23
201.6639849689805
 33
0.0
  0
SOLID
  5
131F
330
B8A
100
AcDbEntity
  8
0
 62
     0
100
AcDbTrace
 10
69.72110164240087
 20
201.9973183023139
 30
0.0
 11
69.72110164240087
 21
201.3306516356472
 31
0.0
 12
67.72110164240086
 22
201.6639849689805
 32
0.0
 13
67.72110164240086
 23
201.6639849689805
 33
0.0
  0
MTEXT
  5
1320
330
B8A
100
AcDbEntity
  8
0
 62
     0
100
AcDbMText
 10
71.95323461548923
 20
203.7889849689805
 30
0.0
 40
3.0
 41
0.0
 71
     5
 72
     1
  1
8
 73
     1
 44
1.0
  0
POINT
  5
1321
330
B8A
100
AcDbEntity
  8
Defpoints
 62
     0
100
AcDbPoint
 10
76.18536758857761
 20
191.8240339408219
 30
0.0
  0
POINT
  5
1322
330
B8A
100
AcDbEntity
  8
Defpoints
 62
     0
100
AcDbPoint
 10
67.72110164240086
 20
191.8240339408219
 30
0.0
  0
POINT
  5
1323
330
B8A
100
AcDbEntity
  8
Defpoints
 62
     0
100
AcDbPoint
 10
67.72110164240086
 20
201.6639849689805
 30
0.0
  0
ENDBLK
  5
B96
330
B8A
100
AcDbEntity
  8
0
100
AcDbBlockEnd
  0
BLOCK
  5
BAC
330
BA1
100
AcDbEntity
  8
0
100
AcDbBlockBegin
  2
*D3
 70
     1
 10
0.0
 20
0.0
 30
0.0
  3
*D3
  1

  0
LINE
  5
132F
330
BA1
100
AcDbEntity
  8
0
 62
     7
370
     9
100
AcDbLine
 10
66.04435643751947
 20
186.3560195406113
 30
0.0
 11
42.42305245693001
 21
186.3560195406113
 31
0.0
  0
LINE
  5
1330
330
BA1
100
AcDbEntity
  8
0
 62
     7
370
     9
100
AcDbLine
 10
66.04435643751947
 20
175.9786343727044
 30
0.0
 11
42.42305245693001
 21
175.9786343727044
 31
0.0
  0
LINE
  5
1331
330
BA1
100
AcDbEntity
  8
0
 62
     0
370
    -2
100
AcDbLine
 10
43.67305245693001
 20
184.3560195406113
 30
0.0
 11
43.67305245693001
 21
177.9786343727044
 31
0.0
  0
SOLID
  5
1332
330
BA1
100
AcDbEntity
  8
0
 62
     0
100
AcDbTrace
 10
43.33971912359667
 20
184.3560195406113
 30
0.0
 11
44.00638579026335
 21
184.3560195406113
 31
0.0
 12
43.67305245693001
 22
186.3560195406113
 32
0.0
 13
43.67305245693001
 23
186.3560195406113
 33
0.0
  0
SOLID
  5
1333
330
BA1
100
AcDbEntity
  8
0
 62
     0
100
AcDbTrace
 10
43.33971912359667
 20
177.9786343727044
 30
0.0
 11
44.00638579026335
 21
177.9786343727044
 31
0.0
 12
43.67305245693001
 22
175.9786343727044
 32
0.0
 13
43.67305245693001
 23
175.9786343727044
 33
0.0
  0
MTEXT
  5
1334
330
BA1
100
AcDbEntity
  8
0
 62
     0
100
AcDbMText
 10
41.54805245692998
 20
181.1673269566578
 30
0.0
 40
3.0
 41
0.0
 71
     5
 72
     1
  1
10
 11
0.0000000000000001
 21
1.0
 31
0.0
 73
     1
 44
1.0
  0
POINT
  5
1335
330
BA1
100
AcDbEntity
  8
Defpoints
 62
     0
100
AcDbPoint
 10
66.66935643751947
 20
186.3560195406113
 30
0.0
  0
POINT
  5
1336
330
BA1
100
AcDbEntity
  8
Defpoints
 62
     0
100
AcDbPoint
 10
66.66935643751947
 20
175.9786343727044
 30
0.0
  0
POINT
  5
1337
330
BA1
100
AcDbEntity
  8
Defpoints
 62
     0
100
AcDbPoint
 10
43.67305245693001
 20
175.9786343727044
 30
0.0
  0
ENDBLK
  5
BAD
330
BA1
100
AcDbEntity
  8
0
100
AcDbBlockEnd
  0
BLOCK
  5
CDA
330
CCE
100
AcDbEntity
  8
0
100
AcDbBlockBegin
  2
*D4
 70
     1
 10
0.0
 20
0.0
 30
0.0
  3
*D4
  1

  0
LINE
  5
1324
330
CCE
100
AcDbEntity
  8
0
 62
     7
370
     9
100
AcDbLine
 10
67.62777517384893
 20
175.9786343727044
 30
0.0
 11
67.00277517384893
 21
175.9786343727044
 31
0.0
  0
LINE
  5
1325
330
CCE
100
AcDbEntity
  8
0
 62
     7
370
     9
100
AcDbLine
 10
67.62777517384893
 20
173.9786343727043
 30
0.0
 11
67.00277517384893
 21
173.9786343727043
 31
0.0
  0
LINE
  5
1326
330
CCE
100
AcDbEntity
  8
0
 62
     0
370
    -2
100
AcDbLine
 10
68.25277517384893
 20
177.9786343727043
 30
0.0
 11
68.25277517384893
 21
179.9786343727044
 31
0.0
  0
LINE
  5
1327
330
CCE
100
AcDbEntity
  8
0
 62
     0
370
    -2
100
AcDbLine
 10
68.25277517384893
 20
171.9786343727044
 30
0.0
 11
68.25277517384893
 21
163.7286343727043
 31
0.0
  0
LINE
  5
1328
330
CCE
100
AcDbEntity
  8
0
 62
     0
370
    -2
100
AcDbLine
 10
68.25277517384893
 20
175.9786343727044
 30
0.0
 11
68.25277517384893
 21
173.9786343727043
 31
0.0
  0
SOLID
  5
1329
330
CCE
100
AcDbEntity
  8
0
 62
     0
100
AcDbTrace
 10
67.9194418405156
 20
177.9786343727043
 30
0.0
 11
68.58610850718226
 21
177.9786343727043
 31
0.0
 12
68.25277517384893
 22
175.9786343727044
 32
0.0
 13
68.25277517384893
 23
175.9786343727044
 33
0.0
  0
SOLID
  5
132A
330
CCE
100
AcDbEntity
  8
0
 62
     0
100
AcDbTrace
 10
67.9194418405156
 20
171.9786343727044
 30
0.0
 11
68.58610850718226
 21
171.9786343727044
 31
0.0
 12
68.25277517384893
 22
173.9786343727043
 32
0.0
 13
68.25277517384893
 23
173.9786343727043
 33
0.0
  0
MTEXT
  5
132B
330
CCE
100
AcDbEntity
  8
0
 62
     0
100
AcDbMText
 10
66.1277751738489
 20
166.8536343727044
 30
0.0
 40
3.0
 41
0.0
 71
     5
 72
     1
  1
%%c2
 11
0.0000000000000001
 21
1.0
 31
0.0
 73
     1
 44
1.0
  0
POINT
  5
132C
330
CCE
100
AcDbEntity
  8
Defpoints
 62
     0
100
AcDbPoint
 10
68.25277517384893
 20
175.9786343727044
 30
0.0
  0
POINT
  5
132D
330
CCE
100
AcDbEntity
  8
Defpoints
 62
     0
100
AcDbPoint
 10
68.25277517384893
 20
173.9786343727043
 30
0.0
  0
POINT
  5
132E
330
CCE
100
AcDbEntity
  8
Defpoints
 62
     0
100
AcDbPoint
 10
68.25277517384893
 20
173.9786343727043
 30
0.0
  0
ENDBLK
  5
CDB
330
CCE
100
AcDbEntity
  8
0
100
AcDbBlockEnd
  0
BLOCK
  5
EAF
330
EA5
100
AcDbEntity
  8
0
100
AcDbBlockBegin
  2
*D5
 70
     1
 10
0.0
 20
0.0
 30
0.0
  3
*D5
  1

  0
LINE
  5
1312
330
EA5
100
AcDbEntity
  8
0
 62
     7
370
     9
100
AcDbLine
 10
50.90754960054603
 20
184.1181410299246
 30
0.0
 11
50.90754960054603
 21
212.2863439412995
 31
0.0
  0
LINE
  5
1313
330
EA5
100
AcDbEntity
  8
0
 62
     7
370
     9
100
AcDbLine
 10
106.5015997919579
 20
184.1181410299246
 30
0.0
 11
106.5015997919579
 21
212.2863439412995
 31
0.0
  0
LINE
  5
1314
330
EA5
100
AcDbEntity
  8
0
 62
     0
370
    -2
100
AcDbLine
 10
52.90754960054603
 20
211.0363439412994
 30
0.0
 11
104.5015997919579
 21
211.0363439412994
 31
0.0
  0
SOLID
  5
1315
330
EA5
100
AcDbEntity
  8
0
 62
     0
100
AcDbTrace
 10
52.90754960054603
 20
211.3696772746328
 30
0.0
 11
52.90754960054603
 21
210.7030106079661
 31
0.0
 12
50.90754960054603
 22
211.0363439412994
 32
0.0
 13
50.90754960054603
 23
211.0363439412994
 33
0.0
  0
SOLID
  5
1316
330
EA5
100
AcDbEntity
  8
0
 62
     0
100
AcDbTrace
 10
104.5015997919579
 20
211.3696772746328
 30
0.0
 11
104.5015997919579
 21
210.7030106079661
 31
0.0
 12
106.5015997919579
 22
211.0363439412994
 32
0.0
 13
106.5015997919579
 23
211.0363439412994
 33
0.0
  0
MTEXT
  5
1317
330
EA5
100
AcDbEntity
  8
0
 62
     0
100
AcDbMText
 10
78.70457469625198
 20
213.1613439412995
 30
0.0
 40
3.0
 41
0.0
 71
     5
 72
     1
  1
57
 73
     1
 44
1.0
  0
POINT
  5
1318
330
EA5
100
AcDbEntity
  8
Defpoints
 62
     0
100
AcDbPoint
 10
50.90754960054603
 20
183.4931410299246
 30
0.0
  0
POINT
  5
1319
330
EA5
100
AcDbEntity
  8
Defpoints
 62
     0
100
AcDbPoint
 10
106.5015997919579
 20
183.4931410299246
 30
0.0
  0
POINT
  5
131A
330
EA5
100
AcDbEntity
  8
Defpoints
 62
     0
100
AcDbPoint
 10
106.5015997919579
 20
211.0363439412994
 30
0.0
  0
ENDBLK
  5
EB0
330
EA5
100
AcDbEntity
  8
0
100
AcDbBlockEnd
  0
BLOCK
  5
EBD
330
EBA
100
AcDbEntity
  8
0
100
AcDbBlockBegin
  2
_Dot
 70
     0
 10
0.0
 20
0.0
 30
0.0
  3
_Dot
  1

  0
LWPOLYLINE
  5
EBB
330
EBA
100
AcDbEntity
  8
0
 62
     0
100
AcDbPolyline
 90
        2
 70
     1
 43
0.5
 10
-0.25
 20
0.0
 42
1.0
 10
0.25
 20
0.0
 42
1.0
  0
LINE
  5
EBC
330
EBA
100
AcDbEntity
  8
0
 62
     0
370
    -2
100
AcDbLine
 10
-0.5
 20
0.0
 30
0.0
 11
-1.0
 21
0.0
 31
0.0
  0
ENDBLK
  5
EBE
330
EBA
100
AcDbEntity
  8
0
100
AcDbBlockEnd
  0
BLOCK
  5
1406
330
13FA
100
AcDbEntity
  8
0
100
AcDbBlockBegin
  2
*D11
 70
     1
 10
0.0
 20
0.0
 30
0.0
  3
*D11
  1

  0
LINE
  5
1415
330
13FA
100
AcDbEntity
  8
0
 62
     7
370
     9
100
AcDbLine
 10
201.1133681209014
 20
185.0234858084467
 30
0.0
 11
205.0372905003057
 21
185.0234858084467
 31
0.0
  0
LINE
  5
1416
330
13FA
100
AcDbEntity
  8
0
 62
     7
370
     9
100
AcDbLine
 10
201.1133681209014
 20
182.6234858084466
 30
0.0
 11
205.0372905003057
 21
182.6234858084466
 31
0.0
  0
LINE
  5
1417
330
13FA
100
AcDbEntity
  8
0
 62
     0
370
    -2
100
AcDbLine
 10
203.7872905003057
 20
187.0234858084467
 30
0.0
 11
203.7872905003057
 21
189.0234858084467
 31
0.0
  0
LINE
  5
1418
330
13FA
100
AcDbEntity
  8
0
 62
     0
370
    -2
100
AcDbLine
 10
203.7872905003057
 20
180.6234858084466
 30
0.0
 11
203.7872905003057
 21
168.3734858084466
 31
0.0
  0
LINE
  5
1419
330
13FA
100
AcDbEntity
  8
0
 62
     0
370
    -2
100
AcDbLine
 10
203.7872905003057
 20
185.0234858084467
 30
0.0
 11
203.7872905003057
 21
182.6234858084466
 31
0.0
  0
SOLID
  5
141A
330
13FA
100
AcDbEntity
  8
0
 62
     0
100
AcDbTrace
 10
203.4539571669724
 20
187.0234858084467
 30
0.0
 11
204.120623833639
 21
187.0234858084467
 31
0.0
 12
203.7872905003057
 22
185.0234858084467
 32
0.0
 13
203.7872905003057
 23
185.0234858084467
 33
0.0
  0
SOLID
  5
141B
330
13FA
100
AcDbEntity
  8
0
 62
     0
100
AcDbTrace
 10
203.4539571669724
 20
180.6234858084466
 30
0.0
 11
204.120623833639
 21
180.6234858084466
 31
0.0
 12
203.7872905003057
 22
182.6234858084466
 32
0.0
 13
203.7872905003057
 23
182.6234858084466
 33
0.0
  0
MTEXT
  5
141C
330
13FA
100
AcDbEntity
  8
0
 62
     0
100
AcDbMText
 10
201.6622905003057
 20
173.4984858084467
 30
0.0
 40
3.0
 41
0.0
 71
     5
 72
     1
  1
%%c2.4
 11
0.0000000000000001
 21
1.0
 31
0.0
 73
     1
 44
1.0
  0
POINT
  5
141D
330
13FA
100
AcDbEntity
  8
Defpoints
 62
     0
100
AcDbPoint
 10
200.4883681209014
 20
185.0234858084467
 30
0.0
  0
POINT
  5
141E
330
13FA
100
AcDbEntity
  8
Defpoints
 62
     0
100
AcDbPoint
 10
200.4883681209014
 20
182.6234858084466
 30
0.0
  0
POINT
  5
141F
330
13FA
100
AcDbEntity
  8
Defpoints
 62
     0
100
AcDbPoint
 10
203.7872905003057
 20
182.6234858084466
 30
0.0
  0
ENDBLK
  5
1407
330
13FA
100
AcDbEntity
  8
0
100
AcDbBlockEnd
  0
BLOCK
  5
1413
330
1409
100
AcDbEntity
  8
0
100
AcDbBlockBegin
  2
*D12
 70
     1
 10
0.0
 20
0.0
 30
0.0
  3
*D12
  1

  0
LINE
  5
1420
330
1409
100
AcDbEntity
  8
0
 62
     7
370
     9
100
AcDbLine
 10
186.5769483599173
 20
186.8234858084467
 30
0.0
 11
191.0659716562649
 21
186.8234858084467
 31
0.0
  0
LINE
  5
1421
330
1409
100
AcDbEntity
  8
0
 62
     7
370
     9
100
AcDbLine
 10
186.5769483599173
 20
180.8234858084467
 30
0.0
 11
191.0659716562649
 21
180.8234858084467
 31
0.0
  0
LINE
  5
1422
330
1409
100
AcDbEntity
  8
0
 62
     0
370
    -2
100
AcDbLine
 10
189.8159716562649
 20
184.8234858084467
 30
0.0
 11
189.8159716562649
 21
182.8234858084467
 31
0.0
  0
LINE
  5
1423
330
1409
100
AcDbEntity
  8
0
 62
     0
370
    -2
100
AcDbLine
 10
189.8159716562649
 20
180.8234858084467
 30
0.0
 11
189.8159716562649
 21
172.5734858084467
 31
0.0
  0
SOLID
  5
1424
330
1409
100
AcDbEntity
  8
0
 62
     0
100
AcDbTrace
 10
189.4826383229316
 20
184.8234858084467
 30
0.0
 11
190.1493049895983
 21
184.8234858084467
 31
0.0
 12
189.8159716562649
 22
186.8234858084467
 32
0.0
 13
189.8159716562649
 23
186.8234858084467
 33
0.0
  0
SOLID
  5
1425
330
1409
100
AcDbEntity
  8
0
 62
     0
100
AcDbTrace
 10
189.4826383229316
 20
182.8234858084467
 30
0.0
 11
190.1493049895983
 21
182.8234858084467
 31
0.0
 12
189.8159716562649
 22
180.8234858084467
 32
0.0
 13
189.8159716562649
 23
180.8234858084467
 33
0.0
  0
MTEXT
  5
1426
330
1409
100
AcDbEntity
  8
0
 62
     0
100
AcDbMText
 10
187.6909716562649
 20
175.6984858084467
 30
0.0
 40
3.0
 41
0.0
 71
     5
 72
     1
  1
%%c6
 11
0.0000000000000001
 21
1.0
 31
0.0
 73
     1
 44
1.0
  0
POINT
  5
1427
330
1409
100
AcDbEntity
  8
Defpoints
 62
     0
100
AcDbPoint
 10
185.9519483599173
 20
186.8234858084467
 30
0.0
  0
POINT
  5
1428
330
1409
100
AcDbEntity
  8
Defpoints
 62
     0
100
AcDbPoint
 10
185.9519483599173
 20
180.8234858084467
 30
0.0
  0
POINT
  5
1429
330
1409
100
AcDbEntity
  8
Defpoints
 62
     0
100
AcDbPoint
 10
189.8159716562649
 20
180.8234858084467
 30
0.0
  0
ENDBLK
  5
1414
330
1409
100
AcDbEntity
  8
0
100
AcDbBlockEnd
  0
ENDSEC
  0
SECTION
  2
ENTITIES
  0
VIEWPORT
  5
2F
330
1B
100
AcDbEntity
 67
     1
  8
0
100
AcDbViewport
 10
211.5080821539553
 20
138.3758555891561
 30
0.0
 40
492.181669566279
 41
346.7548056295304
 68
     1
 69
     1
 12
211.5080821539553
 22
138.3758555891561
 13
0.0
 23
0.0
 14
10.0
 24
10.0
 15
10.0
 25
10.0
 16
0.0
 26
0.0
 36
1.0
 17
0.0
 27
0.0
 37
0.0
 42
50.0
 43
0.0
 44
0.0
 45
346.7548056295304
 50
0.0
 51
0.0
 72
   100
 90
    32800
  1

281
     0
 71
     1
 74
     0
110
0.0
120
0.0
130
0.0
111
1.0
121
0.0
131
0.0
112
0.0
122
1.0
132
0.0
 79
     0
146
0.0
  0
LWPOLYLINE
  5
AA
330
1B
100
AcDbEntity
 67
     1
  8
２
 62
     0
100
AcDbPolyline
 90
        4
 70
     1
 43
0.0
 10
1.042221639059562
 20
284.1844718556203
 10
407.757958684845
 20
284.1844718556203
 10
407.757958684845
 20
1.08829855961801
 10
1.042221639059562
 20
1.08829855961801
  0
MTEXT
  5
1DD
330
1B
100
AcDbEntity
 67
     1
  8
１
100
AcDbMText
 10
187.6389970102438
 20
148.8327383458293
 30
0.0
 40
2.5
 41
0.0
 71
     9
 72
     1
  1

  7
ｽﾀｲﾙ1
 73
     1
 44
1.0
  0
MTEXT
  5
1DF
330
1B
100
AcDbEntity
 67
     1
  8
１
100
AcDbMText
 10
125.9251163363451
 20
100.1557259194321
 30
0.0
 40
2.5
 41
0.0
 71
     9
 72
     1
  1

  7
ｽﾀｲﾙ1
 73
     1
 44
1.0
  0
MTEXT
  5
1F5
330
1B
100
AcDbEntity
 67
     1
  8
１
100
AcDbMText
 10
95.93852678293661
 20
241.1781167614512
 30
0.0
 40
2.5
 41
0.0
 71
     1
 72
     1
  1

  7
ｽﾀｲﾙ1
 73
     1
 44
1.0
  0
MTEXT
  5
1F7
330
1B
100
AcDbEntity
 67
     1
  8
１
100
AcDbMText
 10
103.8845037960281
 20
221.796204377297
 30
0.0
 40
2.5
 41
0.0
 71
     1
 72
     1
  1

  7
ｽﾀｲﾙ1
 73
     1
 44
1.0
  0
LINE
  5
408
330
1B
100
AcDbEntity
 67
     1
  8
１
 62
     0
 48
25.0
100
AcDbLine
 10
6.993853619318826
 20
6.288298559618009
 30
0.0
 11
143.2187496312075
 21
6.288298559617537
 31
0.0
  0
LINE
  5
409
330
1B
100
AcDbEntity
 67
     1
  8
１
 62
     0
 48
25.0
100
AcDbLine
 10
143.2187496312075
 20
8.888298559618011
 30
0.0
 11
6.993853619318826
 21
8.888298559618011
 31
0.0
  0
LINE
  5
40A
330
1B
100
AcDbEntity
 67
     1
  8
１
 62
     0
 48
25.0
100
AcDbLine
 10
143.2187496312075
 20
3.68829855961801
 30
0.0
 11
6.993853619318826
 21
3.68829855961801
 31
0.0
  0
LINE
  5
40B
330
1B
100
AcDbEntity
 67
     1
  8
２
 62
     0
370
    20
100
AcDbLine
 10
2.157958684845141
 20
1.08829855961801
 30
0.0
 11
407.757958684845
 21
1.08829855961801
 31
0.0
  0
LINE
  5
40C
330
1B
100
AcDbEntity
 67
     1
  8
2
 62
     0
 48
25.0
100
AcDbLine
 10
2.157958684845141
 20
11.488298559618
 30
0.0
 11
407.757958684845
 21
11.488298559618
 31
0.0
  0
LINE
  5
40D
330
1B
100
AcDbEntity
 67
     1
  8
２
 62
     0
370
    20
100
AcDbLine
 10
407.757958684845
 20
1.08829855961801
 30
0.0
 11
17.7579586848451
 21
1.08829855961801
 31
0.0
  0
LINE
  5
40E
330
1B
100
AcDbEntity
 67
     1
  8
0
 62
     0
100
AcDbLine
 10
2.157958684845141
 20
1.08829855961801
 30
0.0
 11
407.757958684845
 21
1.08829855961801
 31
0.0
  0
LINE
  5
40F
330
1B
100
AcDbEntity
 67
     1
  8
0
 62
     0
100
AcDbLine
 10
17.7579586848451
 20
1.08829855961801
 30
0.0
 11
2.157958684845141
 21
1.08829855961801
 31
0.0
  0
MTEXT
  5
410
330
1B
100
AcDbEntity
 67
     1
  8
１
 62
     0
 48
20.0
100
AcDbMText
 10
4.575906684845307
 20
6.288298559618013
 30
0.0
 40
2.339999999999999
 41
4.835895999999999
 71
     5
 72
     5
  1
{\fMS UI Gothic|b0|i0|c128|p17;記\P事}
 73
     1
 44
1.0
  0
LINE
  5
411
330
1B
100
AcDbEntity
 67
     1
  8
２
 62
     0
 48
25.0
100
AcDbLine
 10
6.993853619318826
 20
11.488298559618
 30
0.0
 11
6.993853619318826
 21
1.08829855961801
 31
0.0
  0
MTEXT
  5
412
330
1B
100
AcDbEntity
 67
     1
  8
１
 62
     0
 48
25.0
100
AcDbMText
 10
380.922486627896
 20
6.288298559618013
 30
0.0
 40
3.9
 41
53.67094199999999
 71
     5
 72
     5
  1
{\fMS UI Gothic|b0|i0|c128|p17;株式会社 アルティマ}
 73
     1
 44
1.0
  0
LINE
  5
413
330
1B
100
AcDbEntity
 67
     1
  8
0
 62
     0
 48
25.0
100
AcDbLine
 10
198.0567989931067
 20
11.488298559618
 30
0.0
 11
218.4927989931064
 21
11.488298559618
 31
0.0
  0
MTEXT
  5
414
330
1B
100
AcDbEntity
 67
     1
  8
１
 62
     0
 48
25.0
100
AcDbMText
 10
208.006976893107
 20
6.288298559618013
 30
0.0
 40
2.339999999999999
 41
16.6764
 71
     5
 72
     5
  1
{\fMS UI Gothic|b0|i0|c128|p17;S=1/１}
 73
     1
 44
1.0
  0
LINE
  5
415
330
1B
100
AcDbEntity
 67
     1
  8
２
 62
     0
 48
25.0
100
AcDbLine
 10
198.0567989931067
 20
11.488298559618
 30
0.0
 11
198.0567989931067
 21
1.08829855961801
 31
0.0
  0
MTEXT
  5
416
330
1B
100
AcDbEntity
 67
     1
  8
１
 62
     0
 48
25.0
100
AcDbMText
 10
180.854726059599
 20
8.888298559618007
 30
0.0
 40
1.82
 41
34.40409999999999
 71
     5
 72
     5
  1
2019-7-12
 73
     1
 44
1.0
  0
LINE
  5
417
330
1B
100
AcDbEntity
 67
     1
  8
0
 62
     0
 48
25.0
100
AcDbLine
 10
143.2187496312075
 20
11.488298559618
 30
0.0
 11
143.2187496312075
 21
6.288298559618009
 31
0.0
  0
MTEXT
  5
418
330
1B
100
AcDbEntity
 67
     1
  8
１
 62
     0
 48
25.0
100
AcDbMText
 10
153.8116670312071
 20
8.888298559618007
 30
0.0
 40
2.339999999999999
 41
21.1858348
 71
     5
 72
     5
  1
{\fMS UI Gothic|b0|i0|c128|p17;作図日}
 73
     1
 44
1.0
  0
MTEXT
  5
419
330
1B
100
AcDbEntity
 67
     1
  8
１
 62
     0
 48
25.0
100
AcDbMText
 10
180.854726059599
 20
3.688298559618004
 30
0.0
 40
1.82
 41
34.4041464
 71
     5
 72
     5
  1
E.Nomura
 73
     1
 44
1.0
  0
MTEXT
  5
41A
330
1B
100
AcDbEntity
 67
     1
  8
１
 62
     0
 48
25.0
100
AcDbMText
 10
153.4357018312073
 20
3.688298559618004
 30
0.0
 40
2.339999999999999
 41
20.4339044
 71
     5
 72
     5
  1
{\fMS UI Gothic|b0|i0|c128|p17;作図者}
 73
     1
 44
1.0
  0
LINE
  5
41B
330
1B
100
AcDbEntity
 67
     1
  8
２
 62
     0
 48
25.0
100
AcDbLine
 10
143.2187496312075
 20
11.488298559618
 30
0.0
 11
143.2187496312075
 21
1.08829855961801
 31
0.0
  0
LINE
  5
41C
330
1B
100
AcDbEntity
 67
     1
  8
２
 62
     0
 48
25.0
100
AcDbLine
 10
143.2187496312075
 20
6.288298559617537
 30
0.0
 11
143.2187496312075
 21
1.08829855961801
 31
0.0
  0
LINE
  5
41D
330
1B
100
AcDbEntity
 67
     1
  8
２
 62
     0
 48
25.0
100
AcDbLine
 10
163.6526528595987
 20
11.488298559618
 30
0.0
 11
163.6526528595987
 21
1.08829855961801
 31
0.0
  0
LINE
  5
41E
330
1B
100
AcDbEntity
 67
     1
  8
１
 62
     0
 48
25.0
100
AcDbLine
 10
143.2187496312075
 20
6.288298559618009
 30
0.0
 11
198.0567989931067
 21
6.288298559618009
 31
0.0
  0
LINE
  5
41F
330
1B
100
AcDbEntity
 67
     1
  8
２
 62
     0
 48
25.0
100
AcDbLine
 10
143.2187496312075
 20
11.488298559618
 30
0.0
 11
198.0567989931067
 21
11.488298559618
 31
0.0
  0
LINE
  5
420
330
1B
100
AcDbEntity
 67
     1
  8
１
 62
     0
 48
25.0
100
AcDbLine
 10
218.4927989931064
 20
6.288298559618009
 30
0.0
 11
333.27521464208
 21
6.288298559618009
 31
0.0
  0
LINE
  5
421
330
1B
100
AcDbEntity
 67
     1
  8
0
 62
     0
 48
25.0
100
AcDbLine
 10
218.4927989931064
 20
11.488298559618
 30
0.0
 11
238.9287989931069
 21
11.488298559618
 31
0.0
  0
MTEXT
  5
422
330
1B
100
AcDbEntity
 67
     1
  8
１
 62
     0
 48
25.0
100
AcDbMText
 10
228.7107989931072
 20
8.888298559618007
 30
0.0
 40
2.339999999999999
 41
20.436
 71
     5
 72
     5
  1
{\fMS UI Gothic|b0|i0|c128|p17;物件名称}
 73
     1
 44
1.0
  0
MTEXT
  5
423
330
1B
100
AcDbEntity
 67
     1
  8
１
 62
     0
 48
25.0
100
AcDbMText
 10
228.7107989931072
 20
3.688298559618004
 30
0.0
 40
2.339999999999999
 41
20.436
 71
     5
 72
     5
  1
{\fMS UI Gothic|b0|i0|c128|p17;図　　　名}
 73
     1
 44
1.0
  0
LINE
  5
424
330
1B
100
AcDbEntity
 67
     1
  8
0
 62
     0
 48
25.0
100
AcDbLine
 10
218.4927989931064
 20
11.488298559618
 30
0.0
 11
218.4927989931064
 21
1.08829855961801
 31
0.0
  0
LINE
  5
425
330
1B
100
AcDbEntity
 67
     1
  8
２
 62
     0
 48
25.0
100
AcDbLine
 10
218.4927989931064
 20
11.488298559618
 30
0.0
 11
218.4927989931064
 21
1.08829855961801
 31
0.0
  0
LINE
  5
426
330
1B
100
AcDbEntity
 67
     1
  8
２
 62
     0
 48
25.0
100
AcDbLine
 10
238.9287989931069
 20
11.488298559618
 30
0.0
 11
238.9287989931069
 21
1.08829855961801
 31
0.0
  0
LINE
  5
427
330
1B
100
AcDbEntity
 67
     1
  8
0
 62
     0
 48
25.0
100
AcDbLine
 10
230.4397987437844
 20
11.488298559618
 30
0.0
 11
292.2633787437843
 21
11.488298559618
 31
0.0
  0
HATCH
  5
428
330
1B
100
AcDbEntity
 67
     1
  8
Object
 62
     0
 48
0.3
100
AcDbHatch
 10
0.0
 20
0.0
 30
0.0
210
0.0
220
0.0
230
1.0
  2
ANSI31
 70
     0
 71
     1
 91
        1
 92
        1
 93
        6
 72
     1
 10
345.7559450982395
 20
9.347503649218374
 11
346.8791450982394
 21
9.347503649218374
 72
     1
 10
346.8791450982394
 20
9.347503649218374
 11
346.8791450982394
 21
4.405423649218423
 72
     1
 10
346.8791450982394
 20
4.405423649218423
 11
349.1255450982392
 21
4.405423649218423
 72
     1
 10
349.1255450982392
 20
4.405423649218423
 11
349.1255450982392
 21
3.282223649218499
 72
     1
 10
349.1255450982392
 20
3.282223649218499
 11
345.7559450982395
 21
3.282223649218499
 72
     1
 10
345.7559450982395
 20
3.282223649218499
 11
345.7559450982395
 21
9.347503649218374
 97
        6
330
42F
330
44F
330
43F
330
43D
330
440
330
44D
 75
     0
 76
     1
 52
0.0
 41
0.00468
 77
     0
 78
     1
 53
45.0
 43
277.0586179603783
 44
-39.40296006486493
 45
-0.0105068996616509
 46
0.0105068996616509
 79
     0
 98
        1
 10
277.0586179603783
 20
-39.40296006486493
  0
HATCH
  5
429
330
1B
100
AcDbEntity
 67
     1
  8
Object
 62
     0
 48
0.3
100
AcDbHatch
 10
0.0
 20
0.0
 30
0.0
210
0.0
220
0.0
230
1.0
  2
ANSI31
 70
     0
 71
     0
 91
        1
 92
        7
 72
     1
 73
     1
 93
       17
 10
351.2469538682474
 20
4.973920343988897
 42
0.0
 10
351.2469538682474
 20
7.662703649218489
 42
-1.0
 10
352.3701538682473
 20
7.662703649218489
 42
0.0
 10
352.3701538682473
 20
7.013858581380404
 42
0.0
 10
353.4933538682472
 20
7.013858581380404
 42
0.0
 10
353.4933538682472
 20
7.662703649218489
 42
1.0
 10
350.1237538682474
 20
7.662703649218489
 42
0.0
 10
350.1237538682474
 20
4.973920343988897
 42
0.3509045778194451
 10
351.4394428629414
 20
3.330050487290604
 42
0.407199901548665
 10
352.3701538682473
 20
3.877388708773791
 42
0.0
 10
352.3701538682473
 20
3.282223649218497
 42
0.0
 10
353.4933538682472
 20
3.282223649218497
 42
0.0
 10
353.4933538682472
 20
6.33880114490555
 42
0.0
 10
351.8101362509458
 20
6.33880114490555
 42
0.0
 10
351.8101362509458
 20
5.215601144905626
 42
0.0
 10
352.3701538682473
 20
5.215601144905626
 42
0.0
 10
352.3701538682473
 20
4.973920343988897
 42
-1.0
 97
        0
 75
     0
 76
     1
 52
0.0
 41
0.00468
 77
     0
 78
     1
 53
45.0
 43
277.0586179603783
 44
-39.40296006486493
 45
-0.0105068996616509
 46
0.0105068996616509
 79
     0
 47
0.0407053698821989
 98
        1
 10
351.694642141981
 20
4.056669519006494
  0
HATCH
  5
42A
330
1B
100
AcDbEntity
 67
     1
  8
Object
 62
     0
 48
0.3
100
AcDbHatch
 10
0.0
 20
0.0
 30
0.0
210
0.0
220
0.0
230
1.0
  2
ANSI31
 70
     0
 71
     1
 91
        1
 92
        1
 93
        8
 72
     1
 10
341.6375450982394
 20
9.347503649218374
 11
340.5143450982395
 21
9.347503649218374
 72
     1
 10
340.5143450982395
 20
9.347503649218374
 11
340.5143450982395
 21
4.967023649218386
 72
     2
 10
342.1991450982394
 20
4.967023649218386
 40
1.6848
 50
180.0
 51
360.0
 73
     1
 72
     1
 10
343.8839450982393
 20
4.967023649218386
 11
343.8839450982393
 21
9.347503649218374
 72
     1
 10
343.8839450982393
 20
9.347503649218374
 11
342.7607450982394
 21
9.347503649218374
 72
     1
 10
342.7607450982394
 20
9.347503649218374
 11
342.7607450982394
 21
4.967023649218386
 72
     2
 10
342.1991450982394
 20
4.967023649218386
 40
0.5616000000000002
 50
360.0
 51
540.0
 73
     0
 72
     1
 10
341.6375450982394
 20
4.967023649218386
 11
341.6375450982394
 21
9.347503649218374
 97
        8
330
432
330
447
330
444
330
44E
330
434
330
445
330
443
330
446
 75
     0
 76
     1
 52
0.0
 41
0.00468
 77
     0
 78
     1
 53
45.0
 43
277.0586179603783
 44
-39.40296006486493
 45
-0.0105068996616509
 46
0.0105068996616509
 79
     0
 98
        1
 10
277.0586179603783
 20
-39.40296006486493
  0
LINE
  5
42B
330
1B
100
AcDbEntity
 67
     1
  8
Object
 62
     0
 48
0.3
100
AcDbLine
 10
353.4933538682472
 20
6.338801144905552
 30
0.0
 11
351.8101362509458
 21
6.338801144905552
 31
0.0
  0
LINE
  5
42C
330
1B
100
AcDbEntity
 67
     1
  8
Object
 62
     0
 48
0.3
100
AcDbLine
 10
352.3701538682472
 20
7.013858581380404
 30
0.0
 11
353.4933538682472
 21
7.013858581380404
 31
0.0
  0
LINE
  5
42D
330
1B
100
AcDbEntity
 67
     1
  8
Object
 62
     0
 48
0.3
100
AcDbLine
 10
352.3701538682472
 20
7.013858581380404
 30
0.0
 11
352.3701538682472
 21
7.662703649218489
 31
0.0
  0
LINE
  5
42E
330
1B
100
AcDbEntity
 67
     1
  8
Object
 62
     0
 48
0.3
100
AcDbLine
 10
353.4933538682472
 20
7.662703649218489
 30
0.0
 11
353.4933538682472
 21
7.013858581380404
 31
0.0
  0
LINE
  5
42F
102
{ACAD_REACTORS
330
428
102
}
330
1B
100
AcDbEntity
 67
     1
  8
Object
 62
     0
 48
0.3
100
AcDbLine
 10
345.7559450982395
 20
9.347503649218374
 30
0.0
 11
346.8791450982394
 21
9.347503649218374
 31
0.0
  0
ARC
  5
430
330
1B
100
AcDbEntity
 67
     1
  8
Object
 62
     0
 48
0.3
100
AcDbCircle
 10
351.8085538682473
 20
7.662703649218489
 30
0.0
 40
0.5616000000000002
100
AcDbArc
 50
0.0
 51
180.0
  0
ARC
  5
431
330
1B
100
AcDbEntity
 67
     1
  8
Object
 62
     0
 48
0.3
100
AcDbCircle
 10
351.8085538682473
 20
7.662703649218489
 30
0.0
 40
1.6848
100
AcDbArc
 50
0.0
 51
180.0
  0
LINE
  5
432
102
{ACAD_REACTORS
330
42A
102
}
330
1B
100
AcDbEntity
 67
     1
  8
Object
 62
     0
 48
0.3
100
AcDbLine
 10
341.6375450982394
 20
9.347503649218374
 30
0.0
 11
340.5143450982395
 21
9.347503649218374
 31
0.0
  0
LINE
  5
433
330
1B
100
AcDbEntity
 67
     1
  8
Object
 62
     0
 48
0.3
100
AcDbLine
 10
340.5143450982395
 20
9.347503649218374
 30
0.0
 11
341.6375450982394
 21
9.347503649218374
 31
0.0
  0
LINE
  5
434
102
{ACAD_REACTORS
330
42A
102
}
330
1B
100
AcDbEntity
 67
     1
  8
Object
 62
     0
 48
0.3
100
AcDbLine
 10
342.7607450982394
 20
9.347503649218374
 30
0.0
 11
343.8839450982393
 21
9.347503649218374
 31
0.0
  0
LINE
  5
435
330
1B
100
AcDbEntity
 67
     1
  8
Object
 62
     0
 48
0.3
100
AcDbLine
 10
352.3701538682472
 20
3.877388708771899
 30
0.0
 11
352.3701538682472
 21
3.282223649218499
 31
0.0
  0
LINE
  5
436
330
1B
100
AcDbEntity
 67
     1
  8
Object
 62
     0
 48
0.3
100
AcDbLine
 10
352.3701538682472
 20
5.215601144905626
 30
0.0
 11
352.3701538682472
 21
4.973920343988897
 31
0.0
  0
LINE
  5
437
330
1B
100
AcDbEntity
 67
     1
  8
Object
 62
     0
 48
0.3
100
AcDbLine
 10
351.8101362509458
 20
5.215601144905626
 30
0.0
 11
352.3701538682472
 21
5.215601144905626
 31
0.0
  0
LINE
  5
438
330
1B
100
AcDbEntity
 67
     1
  8
Object
 62
     0
 48
0.3
100
AcDbLine
 10
352.3701538682472
 20
5.215601144905626
 30
0.0
 11
352.3701538682472
 21
4.955799910284218
 31
0.0
  0
LINE
  5
439
330
1B
100
AcDbEntity
 67
     1
  8
Object
 62
     0
 48
0.3
100
AcDbLine
 10
352.3701538682472
 20
4.973920343988897
 30
0.0
 11
352.3701538682472
 21
5.215601144905626
 31
0.0
  0
LINE
  5
43A
330
1B
100
AcDbEntity
 67
     1
  8
Object
 62
     0
 48
0.3
100
AcDbLine
 10
351.8101362509458
 20
5.215601144905626
 30
0.0
 11
352.3701538682472
 21
5.215601144905626
 31
0.0
  0
LINE
  5
43B
330
1B
100
AcDbEntity
 67
     1
  8
Object
 62
     0
 48
0.3
100
AcDbLine
 10
353.4933538682472
 20
3.282223649218499
 30
0.0
 11
352.3701538682472
 21
3.282223649218499
 31
0.0
  0
LINE
  5
43C
330
1B
100
AcDbEntity
 67
     1
  8
Object
 62
     0
 48
0.3
100
AcDbLine
 10
352.3701538682472
 20
3.282223649218499
 30
0.0
 11
353.4933538682472
 21
3.282223649218499
 31
0.0
  0
LINE
  5
43D
102
{ACAD_REACTORS
330
428
102
}
330
1B
100
AcDbEntity
 67
     1
  8
Object
 62
     0
 48
0.3
100
AcDbLine
 10
349.1255450982392
 20
3.282223649218499
 30
0.0
 11
349.1255450982392
 21
4.405423649218423
 31
0.0
  0
ARC
  5
43E
330
1B
100
AcDbEntity
 67
     1
  8
Object
 62
     0
 48
0.3
100
AcDbCircle
 10
351.8085538682473
 20
4.973920343988897
 30
0.0
 40
1.6848
100
AcDbArc
 50
180.0
 51
257.3448222610501
  0
LINE
  5
43F
102
{ACAD_REACTORS
330
428
102
}
330
1B
100
AcDbEntity
 67
     1
  8
Object
 62
     0
 48
0.3
100
AcDbLine
 10
349.1255450982392
 20
4.405423649218423
 30
0.0
 11
346.8791450982394
 21
4.405423649218423
 31
0.0
  0
LINE
  5
440
102
{ACAD_REACTORS
330
428
102
}
330
1B
100
AcDbEntity
 67
     1
  8
Object
 62
     0
 48
0.3
100
AcDbLine
 10
345.7559450982395
 20
3.282223649218499
 30
0.0
 11
349.1255450982392
 21
3.282223649218499
 31
0.0
  0
ARC
  5
441
330
1B
100
AcDbEntity
 67
     1
  8
Object
 62
     0
 48
0.3
100
AcDbCircle
 10
351.6244795921702
 20
4.080382394780059
 30
0.0
 40
0.7728108193866524
100
AcDbArc
 50
256.1468978562146
 51
344.7714912032799
  0
ARC
  5
442
330
1B
100
AcDbEntity
 67
     1
  8
Object
 62
     0
 48
0.3
100
AcDbCircle
 10
351.8085538682473
 20
4.973920343988897
 30
0.0
 40
0.5616000000000002
100
AcDbArc
 50
180.0
 51
0.0
  0
ARC
  5
443
102
{ACAD_REACTORS
330
42A
102
}
330
1B
100
AcDbEntity
 67
     1
  8
Object
 62
     0
 48
0.3
100
AcDbCircle
 10
342.1991450982394
 20
4.967023649218386
 30
0.0
 40
0.5616000000000002
100
AcDbArc
 50
180.0
 51
0.0
  0
ARC
  5
444
102
{ACAD_REACTORS
330
42A
102
}
330
1B
100
AcDbEntity
 67
     1
  8
Object
 62
     0
 48
0.3
100
AcDbCircle
 10
342.1991450982394
 20
4.967023649218386
 30
0.0
 40
1.6848
100
AcDbArc
 50
180.0
 51
0.0
  0
LINE
  5
445
102
{ACAD_REACTORS
330
42A
102
}
330
1B
100
AcDbEntity
 67
     1
  8
Object
 62
     0
 48
0.3
100
AcDbLine
 10
342.7607450982394
 20
9.347503649218374
 30
0.0
 11
342.7607450982394
 21
4.967023649218386
 31
0.0
  0
LINE
  5
446
102
{ACAD_REACTORS
330
42A
102
}
330
1B
100
AcDbEntity
 67
     1
  8
Object
 62
     0
 48
0.3
100
AcDbLine
 10
341.6375450982394
 20
9.347503649218374
 30
0.0
 11
341.6375450982394
 21
4.967023649218386
 31
0.0
  0
LINE
  5
447
102
{ACAD_REACTORS
330
42A
102
}
330
1B
100
AcDbEntity
 67
     1
  8
Object
 62
     0
 48
0.3
100
AcDbLine
 10
340.5143450982395
 20
4.967023649218386
 30
0.0
 11
340.5143450982395
 21
9.347503649218374
 31
0.0
  0
LINE
  5
448
330
1B
100
AcDbEntity
 67
     1
  8
２
 62
     0
 48
20.0
100
AcDbLine
 10
333.27521464208
 20
11.488298559618
 30
0.0
 11
333.27521464208
 21
1.08829855961801
 31
0.0
  0
LINE
  5
449
330
1B
100
AcDbEntity
 67
     1
  8
1
 62
     0
 48
20.0
100
AcDbLine
 10
333.27521464208
 20
11.488298559618
 30
0.0
 11
333.27521464208
 21
1.08829855961801
 31
0.0
  0
LINE
  5
44A
330
1B
100
AcDbEntity
 67
     1
  8
Object
 62
     0
 48
0.3
100
AcDbLine
 10
351.2469538682474
 20
4.973920343988897
 30
0.0
 11
351.2469538682474
 21
7.662703649218489
 31
0.0
  0
LINE
  5
44B
330
1B
100
AcDbEntity
 67
     1
  8
Object
 62
     0
 48
0.3
100
AcDbLine
 10
350.1237538682464
 20
4.909468561639801
 30
0.0
 11
350.1237538682464
 21
7.662703649218489
 31
0.0
  0
LINE
  5
44C
330
1B
100
AcDbEntity
 67
     1
  8
Object
 62
     0
 48
0.3
100
AcDbLine
 10
351.2469538682474
 20
4.973920343988897
 30
0.0
 11
351.2469538682474
 21
7.662703649218489
 31
0.0
  0
LINE
  5
44D
102
{ACAD_REACTORS
330
428
102
}
330
1B
100
AcDbEntity
 67
     1
  8
Object
 62
     0
 48
0.3
100
AcDbLine
 10
345.7559450982395
 20
9.347503649218374
 30
0.0
 11
345.7559450982395
 21
3.282223649218499
 31
0.0
  0
LINE
  5
44E
102
{ACAD_REACTORS
330
42A
102
}
330
1B
100
AcDbEntity
 67
     1
  8
Object
 62
     0
 48
0.3
100
AcDbLine
 10
343.8839450982393
 20
9.347503649218374
 30
0.0
 11
343.8839450982393
 21
4.967023649218386
 31
0.0
  0
LINE
  5
44F
102
{ACAD_REACTORS
330
428
102
}
330
1B
100
AcDbEntity
 67
     1
  8
Object
 62
     0
 48
0.3
100
AcDbLine
 10
346.8791450982394
 20
9.347503649218374
 30
0.0
 11
346.8791450982394
 21
4.405423649218423
 31
0.0
  0
LINE
  5
450
330
1B
100
AcDbEntity
 67
     1
  8
Object
 62
     0
 48
0.3
100
AcDbLine
 10
353.4933538682472
 20
6.338801144905078
 30
0.0
 11
353.4933538682472
 21
3.282223649218499
 31
0.0
  0
LINE
  5
451
330
1B
100
AcDbEntity
 67
     1
  8
Object
 62
     0
 48
0.3
100
AcDbLine
 10
351.8101362509458
 20
6.338801144905552
 30
0.0
 11
351.8101362509458
 21
5.215601144905626
 31
0.0
  0
LINE
  5
452
330
1B
100
AcDbEntity
 67
     1
  8
2
 62
     0
100
AcDbLine
 10
2.157958684845141
 20
11.488298559618
 30
0.0
 11
1.042221639059562
 21
11.488298559618
 31
0.0
  0
LINE
  5
453
330
1B
100
AcDbEntity
 67
     1
  8
2
 62
     0
100
AcDbLine
 10
1.042221639059562
 20
11.488298559618
 30
0.0
 11
407.757958684845
 21
11.48829855961798
 31
0.0
  0
LINE
  5
454
330
1B
100
AcDbEntity
 67
     1
  8
2
 62
     0
100
AcDbLine
 10
143.2187496312075
 20
11.488298559618
 30
0.0
 11
143.2187496312075
 21
1.08829855961801
 31
0.0
  0
LINE
  5
455
330
1B
100
AcDbEntity
 67
     1
  8
2
 62
     0
100
AcDbLine
 10
163.6526528595987
 20
11.48829855961799
 30
0.0
 11
163.6526528595987
 21
1.08829855961801
 31
0.0
  0
LINE
  5
456
330
1B
100
AcDbEntity
 67
     1
  8
2
 62
     0
100
AcDbLine
 10
198.0567989931067
 20
11.48829855961799
 30
0.0
 11
198.0567989931068
 21
1.08829855961801
 31
0.0
  0
LINE
  5
457
330
1B
100
AcDbEntity
 67
     1
  8
2
 62
     0
100
AcDbLine
 10
218.4927989931064
 20
11.48829855961799
 30
0.0
 11
218.4927989931064
 21
1.08829855961801
 31
0.0
  0
LINE
  5
458
330
1B
100
AcDbEntity
 67
     1
  8
2
 62
     0
100
AcDbLine
 10
238.9287989931069
 20
11.48829855961799
 30
0.0
 11
238.9287989931069
 21
1.08829855961801
 31
0.0
  0
LINE
  5
459
330
1B
100
AcDbEntity
 67
     1
  8
2
 62
     0
100
AcDbLine
 10
333.27521464208
 20
11.48829855961799
 30
0.0
 11
333.27521464208
 21
1.08829855961801
 31
0.0
  0
LINE
  5
45A
330
1B
100
AcDbEntity
 67
     1
  8
2
 62
     0
100
AcDbLine
 10
143.2187496312075
 20
6.288298559617537
 30
0.0
 11
198.0567989931067
 21
6.288298559617536
 31
0.0
  0
LINE
  5
45B
330
1B
100
AcDbEntity
 67
     1
  8
2
 62
     0
100
AcDbLine
 10
218.4927989931064
 20
6.288298559618004
 30
0.0
 11
333.27521464208
 21
6.288298559618009
 31
0.0
  0
LINE
  5
45C
330
1B
100
AcDbEntity
 67
     1
  8
2
 62
     0
100
AcDbLine
 10
6.993853619318826
 20
11.488298559618
 30
0.0
 11
6.993853619318826
 21
1.08829855961801
 31
0.0
  0
MTEXT
  5
492
330
1B
100
AcDbEntity
 67
     1
  8
1
 62
     1
100
AcDbMText
 10
141.076492619535
 20
2.388298559618007
 30
0.0
 40
0.8
 41
4.2845
 71
     5
 72
     5
  1
2.34
 73
     1
 44
1.0
  0
LINE
  5
7C2
330
1B
100
AcDbEntity
 67
     1
  8
２
 62
     0
 48
0.2
100
AcDbLine
 10
84.72490647047186
 20
177.4240011373648
 30
0.0
 11
84.27768059741003
 21
189.4479931965714
 31
0.0
  0
LINE
  5
7C3
330
1B
100
AcDbEntity
 67
     1
  8
２
 62
     0
 48
0.2
100
AcDbLine
 10
82.80745902498313
 20
176.4246653647723
 30
0.0
 11
82.27754524049293
 21
189.4514695493127
 31
0.0
  0
LINE
  5
7C4
330
1B
100
AcDbEntity
 67
     1
  8
２
 62
     0
 48
0.2
100
AcDbLine
 10
86.72490647047187
 20
177.4240011373648
 30
0.0
 11
86.27768059741004
 21
189.4479931965714
 31
0.0
  0
LINE
  5
7C5
330
1B
100
AcDbEntity
 67
     1
  8
２
 62
     0
 48
0.2
100
AcDbLine
 10
78.80162874283121
 20
175.2996824043356
 30
0.0
 11
78.18467301115799
 21
191.8612988358507
 31
0.0
  0
LINE
  5
7C6
330
1B
100
AcDbEntity
 67
     1
  8
２
 62
     0
 48
0.2
100
AcDbLine
 10
76.81727120131938
 20
174.8787371334246
 30
0.0
 11
76.18536758857761
 21
191.824033940822
 31
0.0
  0
LINE
  5
7C7
330
1B
100
AcDbEntity
 67
     1
  8
２
 62
     0
 48
0.2
100
AcDbLine
 10
80.78585949167347
 20
175.7229936334533
 30
0.0
 11
80.21281156904604
 21
191.1406252153884
 31
0.0
  0
ARC
  5
7C8
330
1B
100
AcDbEntity
 67
     1
  8
２
 62
     0
 48
0.2
100
AcDbCircle
 10
60.88749735257954
 20
183.9699666042777
 30
0.0
 40
7.991332231573323
100
AcDbArc
 50
96.90874086239707
 51
270.0
  0
ARC
  5
7C9
330
1B
100
AcDbEntity
 67
     1
  8
２
 62
     0
 48
0.2
100
AcDbCircle
 10
60.88749735257954
 20
183.9699666042777
 30
0.0
 40
9.991332231573323
100
AcDbArc
 50
95.47083683496024
 51
270.0
  0
DIMENSION
  5
7CA
330
1B
100
AcDbEntity
 67
     1
  8
0
 62
     0
 48
0.2
100
AcDbDimension
  2
*D1
 10
114.470888724555
 20
192.9786343727043
 30
0.0
 11
114.5375373292242
 21
199.1778349649192
 31
0.0
 70
   161
  1
%%c19
 71
     5
 42
19.0
  3
ISO-25
100
AcDbAlignedDimension
 13
77.85456582972244
 23
173.9786343727043
 33
0.0
 14
77.85456582972244
 24
192.9786343727043
 34
0.0
1001
ACAD
1000
DSTYLE
1002
{
1070
   279
1070
     2
1002
}
  0
ARC
  5
7CC
330
1B
100
AcDbEntity
 67
     1
  8
２
 62
     0
 48
0.2
100
AcDbCircle
 10
91.72088101271276
 20
177.513637687991
 30
0.0
 40
1.0
100
AcDbArc
 50
175.763184449436
 51
4.260207142359458
  0
ARC
  5
7CD
330
1B
100
AcDbEntity
 67
     1
  8
２
 62
     0
 48
0.2
100
AcDbCircle
 10
87.72088101271277
 20
177.513637687991
 30
0.0
 40
1.0
100
AcDbArc
 50
185.1426984664482
 51
4.260207142359458
  0
ARC
  5
7CE
330
1B
100
AcDbEntity
 67
     1
  8
２
 62
     0
 48
0.2
100
AcDbCircle
 10
89.72088101271276
 20
177.513637687991
 30
0.0
 40
1.0
100
AcDbArc
 50
175.763184449436
 51
4.260207142359458
  0
ARC
  5
7CF
330
1B
100
AcDbEntity
 67
     1
  8
２
 62
     0
 48
0.2
100
AcDbCircle
 10
103.6822684093407
 20
178.5873971956781
 30
0.0
 40
1.0
100
AcDbArc
 50
180.0
 51
4.26680835240621
  0
ARC
  5
7D0
330
1B
100
AcDbEntity
 67
     1
  8
２
 62
     0
 48
0.2
100
AcDbCircle
 10
99.72088101271276
 20
177.513637687991
 30
0.0
 40
1.0
100
AcDbArc
 50
180.0000000000032
 51
4.260207142359458
  0
ARC
  5
7D1
330
1B
100
AcDbEntity
 67
     1
  8
２
 62
     0
 48
0.2
100
AcDbCircle
 10
101.7208810127127
 20
177.513637687991
 30
0.0
 40
1.0
100
AcDbArc
 50
175.763184449436
 51
4.260207142359458
  0
ARC
  5
7D2
330
1B
100
AcDbEntity
 67
     1
  8
２
 62
     0
 48
0.2
100
AcDbCircle
 10
95.72088101271276
 20
177.513637687991
 30
0.0
 40
1.0
100
AcDbArc
 50
175.763184449436
 51
0.0
  0
ARC
  5
7D3
330
1B
100
AcDbEntity
 67
     1
  8
２
 62
     0
 48
0.2
100
AcDbCircle
 10
97.72088101271277
 20
177.513637687991
 30
0.0
 40
1.0
100
AcDbArc
 50
175.763184449436
 51
4.260207142359458
  0
ARC
  5
7D4
330
1B
100
AcDbEntity
 67
     1
  8
２
 62
     0
 48
0.2
100
AcDbCircle
 10
93.72088101271277
 20
177.513637687991
 30
0.0
 40
1.0
100
AcDbArc
 50
180.0000000000032
 51
4.260207142359458
  0
LINE
  5
7D5
330
1B
100
AcDbEntity
 67
     1
  8
２
 62
     0
 48
0.2
100
AcDbLine
 10
100.7208810127127
 20
177.5136376879909
 30
0.0
 11
100.2736551396509
 21
189.5376297471976
 31
0.0
  0
LINE
  5
7D6
330
1B
100
AcDbEntity
 67
     1
  8
２
 62
     0
 48
0.2
100
AcDbLine
 10
102.7208810127127
 20
177.5136376879909
 30
0.0
 11
102.2736551396509
 21
189.5376297471976
 31
0.0
  0
LINE
  5
7D7
330
1B
100
AcDbEntity
 67
     1
  8
２
 62
     0
 48
0.2
100
AcDbLine
 10
96.72088101271278
 20
177.5136376879909
 30
0.0
 11
96.27365513965095
 21
189.5376297471976
 31
0.0
  0
LINE
  5
7D8
330
1B
100
AcDbEntity
 67
     1
  8
２
 62
     0
 48
0.2
100
AcDbLine
 10
98.72088101271277
 20
177.5136376879909
 30
0.0
 11
98.27365513965094
 21
189.5376297471976
 31
0.0
  0
LINE
  5
7D9
330
1B
100
AcDbEntity
 67
     1
  8
２
 62
     0
 48
0.2
100
AcDbLine
 10
92.72088101271277
 20
177.5136376879909
 30
0.0
 11
92.27365513965095
 21
189.5376297471976
 31
0.0
  0
LINE
  5
7DA
330
1B
100
AcDbEntity
 67
     1
  8
２
 62
     0
 48
0.2
100
AcDbLine
 10
94.72088101271276
 20
177.5136376879909
 30
0.0
 11
94.27365513965094
 21
189.5376297471976
 31
0.0
  0
LINE
  5
7DB
330
1B
100
AcDbEntity
 67
     1
  8
２
 62
     0
 48
0.2
100
AcDbLine
 10
88.72088101271277
 20
177.5136376879909
 30
0.0
 11
88.27365513965094
 21
189.5376297471976
 31
0.0
  0
LINE
  5
7DC
330
1B
100
AcDbEntity
 67
     1
  8
２
 62
     0
 48
0.2
100
AcDbLine
 10
90.72088101271276
 20
177.5136376879909
 30
0.0
 11
90.27365513965094
 21
189.5376297471976
 31
0.0
  0
LINE
  5
7DD
330
1B
100
AcDbEntity
 67
     1
  8
２
 62
     0
 48
0.2
100
AcDbLine
 10
86.72088101271276
 20
177.5136376879909
 30
0.0
 11
86.27365513965093
 21
189.5376297471976
 31
0.0
  0
LINE
  5
7DE
330
1B
100
AcDbEntity
 67
     1
  8
２
 62
     0
 48
0.2
100
AcDbLine
 10
77.85456582972244
 20
175.9786343727044
 30
0.0
 11
62.88749735257955
 21
175.9786343727044
 31
0.0
  0
LINE
  5
7DF
330
1B
100
AcDbEntity
 67
     1
  8
２
 62
     0
 48
0.2
100
AcDbLine
 10
77.85456582972244
 20
173.9786343727043
 30
0.0
 11
62.88749735257955
 21
173.9786343727043
 31
0.0
  0
ARC
  5
7E0
330
1B
100
AcDbEntity
 67
     1
  8
２
 62
     0
 48
0.2
100
AcDbCircle
 10
77.85456582972244
 20
174.9786343727044
 30
0.0
 40
1.0
100
AcDbArc
 50
180.0
 51
19.02901600423707
  0
ARC
  5
7E1
330
1B
100
AcDbEntity
 67
     1
  8
２
 62
     0
 48
0.2
100
AcDbCircle
 10
83.80799754094288
 20
176.9309536000948
 30
0.0
 40
1.0
100
AcDbArc
 50
180.0
 51
6.174175209270644
  0
ARC
  5
7E2
330
1B
100
AcDbEntity
 67
     1
  8
２
 62
     0
 48
0.2
100
AcDbCircle
 10
81.80745902498314
 20
176.4246653647723
 30
0.0
 40
1.0
100
AcDbArc
 50
180.0
 51
4.658869876553793
  0
ARC
  5
7E3
330
1B
100
AcDbEntity
 67
     1
  8
２
 62
     0
 48
0.2
100
AcDbCircle
 10
79.78585949167348
 20
175.7229936334533
 30
0.0
 40
1.0
100
AcDbArc
 50
203.2722249375599
 51
4.257219433552106
  0
ARC
  5
7E4
330
1B
100
AcDbEntity
 67
     1
  8
２
 62
     0
 48
0.2
100
AcDbCircle
 10
85.72490647047187
 20
177.4240011373648
 30
0.0
 40
1.0
100
AcDbArc
 50
186.1741752100979
 51
5.142698466443373
  0
LINE
  5
7E5
330
1B
100
AcDbEntity
 67
     1
  8
２
 62
     0
 48
0.2
100
AcDbLine
 10
62.88749735257955
 20
173.9786343727043
 30
0.0
 11
60.4561580350429
 21
173.9879494657018
 31
0.0
  0
LINE
  5
7E6
330
1B
100
AcDbEntity
 67
     1
  8
２
 62
     0
 48
0.2
100
AcDbLine
 10
62.88749735257955
 20
175.9786343727044
 30
0.0
 11
60.88749735257954
 21
175.9786343727044
 31
0.0
  0
ARC
  5
7EC
330
1B
100
AcDbEntity
 67
     1
  8
２
 62
     0
 48
0.2
100
AcDbCircle
 10
97.27434613664479
 20
189.5004609900055
 30
0.0
 40
1.0
100
AcDbArc
 50
2.130103571179942
 51
185.1426984664469
  0
LINE
  5
7EF
330
1B
100
AcDbEntity
 67
     1
  8
２
 62
     0
 48
0.2
100
AcDbLine
 10
104.6822684093407
 20
178.587397195678
 30
0.0
 11
104.3101861807716
 21
188.5756067773152
 31
0.0
  0
LINE
  5
7F2
330
1B
100
AcDbEntity
 67
     1
  8
２
 62
     0
 48
0.2
100
AcDbLine
 10
106.6381085310046
 20
179.8286878778167
 30
0.0
 11
106.3404789499344
 21
187.8182837390766
 31
0.0
  0
ARC
  5
7F8
330
1B
100
AcDbEntity
 67
     1
  8
２
 62
     0
 48
0.2
100
AcDbCircle
 10
105.6388016708159
 20
179.7914615540674
 30
0.0
 40
1.0
100
AcDbArc
 50
189.5625840082743
 51
2.133404176201654
  0
ARC
  5
7FC
330
1B
100
AcDbEntity
 67
     1
  8
２
 62
     0
 48
0.2
100
AcDbCircle
 10
105.3411720897457
 20
187.7810574153273
 30
0.0
 40
1.0
100
AcDbArc
 50
2.133404176201619
 51
180.0
  0
ARC
  5
7FD
330
1B
100
AcDbEntity
 67
     1
  8
２
 62
     0
 48
0.2
100
AcDbCircle
 10
101.2743461366447
 20
189.5004609900055
 30
0.0
 40
1.0
100
AcDbArc
 50
0.0
 51
177.872835482119
  0
ARC
  5
7FE
330
1B
100
AcDbEntity
 67
     1
  8
２
 62
     0
 48
0.2
100
AcDbCircle
 10
103.3101861807716
 20
188.5756067773153
 30
0.0
 40
1.0
100
AcDbArc
 50
359.9999999999967
 51
180.0
  0
ARC
  5
7FF
330
1B
100
AcDbEntity
 67
     1
  8
２
 62
     0
 48
0.2
100
AcDbCircle
 10
99.2743461366448
 20
189.5004609900055
 30
0.0
 40
1.0
100
AcDbArc
 50
354.8983204758624
 51
177.8728354821173
  0
ARC
  5
801
330
1B
100
AcDbEntity
 67
     1
  8
２
 62
     0
 48
0.2
100
AcDbCircle
 10
79.2135015972907
 20
191.1034825128707
 30
0.0
 40
1.0
100
AcDbArc
 50
0.0
 51
180.0
  0
ARC
  5
802
330
1B
100
AcDbEntity
 67
     1
  8
２
 62
     0
 48
0.2
100
AcDbCircle
 10
83.25804903943719
 20
189.9104112624237
 30
0.0
 40
1.0
100
AcDbArc
 50
0.0
 51
180.0
  0
ARC
  5
803
330
1B
100
AcDbEntity
 67
     1
  8
２
 62
     0
 48
0.2
100
AcDbCircle
 10
81.24068547123476
 20
190.4101140651238
 30
0.0
 40
1.0
100
AcDbArc
 50
0.0
 51
180.0
  0
ARC
  5
804
330
1B
100
AcDbEntity
 67
     1
  8
２
 62
     0
 48
0.2
100
AcDbCircle
 10
85.27837159440389
 20
189.4108244393793
 30
0.0
 40
1.0
100
AcDbArc
 50
359.3266143939447
 51
177.8728354821157
  0
ARC
  5
805
330
1B
100
AcDbEntity
 67
     1
  8
２
 62
     0
 48
0.2
100
AcDbCircle
 10
91.2743461366448
 20
189.5004609900055
 30
0.0
 40
1.0
100
AcDbArc
 50
354.8983204758624
 51
177.8728354821173
  0
ARC
  5
806
330
1B
100
AcDbEntity
 67
     1
  8
２
 62
     0
 48
0.2
100
AcDbCircle
 10
87.27434613664479
 20
189.5004609900055
 30
0.0
 40
1.0
100
AcDbArc
 50
354.8983204758624
 51
177.8728354821173
  0
ARC
  5
807
330
1B
100
AcDbEntity
 67
     1
  8
２
 62
     0
 48
0.2
100
AcDbCircle
 10
89.27434613664479
 20
189.5004609900055
 30
0.0
 40
1.0
100
AcDbArc
 50
0.0
 51
177.872835482119
  0
ARC
  5
808
330
1B
100
AcDbEntity
 67
     1
  8
２
 62
     0
 48
0.2
100
AcDbCircle
 10
95.2743461366448
 20
189.5004609900055
 30
0.0
 40
1.0
100
AcDbArc
 50
354.8983204758624
 51
185.142698466447
  0
ARC
  5
809
330
1B
100
AcDbEntity
 67
     1
  8
２
 62
     0
 48
0.2
100
AcDbCircle
 10
93.27434613664479
 20
189.5004609900055
 30
0.0
 40
1.0
100
AcDbArc
 50
2.130103571179942
 51
185.1426984664469
  0
ARC
  5
80A
330
1B
100
AcDbEntity
 67
     1
  8
２
 62
     0
 48
0.2
100
AcDbCircle
 10
77.18467301115777
 20
191.8612988358508
 30
0.0
 40
1.0
100
AcDbArc
 50
359.9999999999983
 51
182.1356156821969
  0
ARC
  5
80B
330
1B
100
AcDbEntity
 67
     1
  8
２
 62
     0
 48
0.2
100
AcDbCircle
 10
63.66935643751947
 20
189.9032737939496
 30
0.0
 40
4.0
100
AcDbArc
 50
0.0
 51
88.10457252193783
  0
ARC
  5
80C
330
1B
100
AcDbEntity
 67
     1
  8
２
 62
     0
 48
0.2
100
AcDbCircle
 10
63.66935643751947
 20
189.9032737939496
 30
0.0
 40
2.0
100
AcDbArc
 50
0.0
 51
90.0
  0
LINE
  5
80D
330
1B
100
AcDbEntity
 67
     1
  8
２
 62
     0
 48
0.2
100
AcDbLine
 10
67.66935643751947
 20
186.9660195406113
 30
0.0
 11
67.66935643751947
 21
189.975593773992
 31
0.0
  0
LINE
  5
80E
330
1B
100
AcDbEntity
 67
     1
  8
２
 62
     0
 48
0.2
100
AcDbLine
 10
65.66935643751946
 20
186.9660195406113
 30
0.0
 11
65.66935643751946
 21
189.9032737939496
 31
0.0
  0
LINE
  5
80F
330
1B
100
AcDbEntity
 67
     1
  8
２
 62
     0
 48
0.2
100
AcDbLine
 10
67.66935643751947
 20
188.0224097028536
 30
0.0
 11
67.66935643751947
 21
186.3560195406113
 31
0.0
  0
LINE
  5
810
330
1B
100
AcDbEntity
 67
     1
  8
２
 62
     0
 48
0.2
100
AcDbLine
 10
65.66935643751946
 20
188.0224097028536
 30
0.0
 11
65.66935643751946
 21
186.3560195406113
 31
0.0
  0
LINE
  5
811
330
1B
100
AcDbEntity
 67
     1
  8
２
 62
     0
 48
0.2
100
AcDbLine
 10
67.66935643751947
 20
186.3560195406113
 30
0.0
 11
65.66935643751946
 21
186.3560195406113
 31
0.0
  0
ARC
  5
812
330
1B
100
AcDbEntity
 67
     1
  8
２
 62
     0
 48
0.2
100
AcDbCircle
 10
62.66935643751947
 20
188.0224097028537
 30
0.0
 40
5.006296784784291
100
AcDbArc
 50
0.0
 51
2.873983629581102
  0
LINE
  5
813
330
1B
100
AcDbEntity
 67
     1
  8
２
 62
     0
 48
0.2
100
AcDbLine
 10
59.9349328279319
 20
193.915786861454
 30
0.0
 11
63.80214463272557
 21
193.915786861454
 31
0.0
  0
LINE
  5
814
330
1B
100
AcDbEntity
 67
     1
  8
２
 62
     0
 48
0.2
100
AcDbLine
 10
59.92623366883583
 20
191.9032737939495
 30
0.0
 11
63.66935643751947
 21
191.9032737939495
 31
0.0
  0
MTEXT
  5
919
330
1B
100
AcDbEntity
 67
     1
  8
0
100
AcDbMText
 10
238.4618807167487
 20
3.922790991076401
 30
0.0
 40
2.5
 41
0.0
 71
     4
 72
     5
  1
　{\H1.16x;両端バネ・スパイラルワイヤーセット}
 73
     1
 44
1.0
  0
DIMENSION
  5
B89
330
1B
100
AcDbEntity
 67
     1
  8
0
100
AcDbDimension
  2
*D2
 10
67.72110164240086
 20
201.6639849689805
 30
0.0
 11
71.95323461548923
 21
203.7889849689805
 31
0.0
 70
    33
  1
8
 71
     5
 42
8.464265946176737
  3
ISO-25
100
AcDbAlignedDimension
 13
76.18536758857761
 23
191.8240339408219
 33
0.0
 14
67.72110164240086
 24
191.8240339408219
 34
0.0
  0
DIMENSION
  5
BA0
330
1B
100
AcDbEntity
 67
     1
  8
0
100
AcDbDimension
  2
*D3
 10
43.67305245693001
 20
175.9786343727044
 30
0.0
 11
41.54805245692998
 21
181.1673269566578
 31
0.0
 70
    33
  1
10
 71
     5
 42
10.37738516790693
  3
ISO-25
100
AcDbAlignedDimension
 13
66.66935643751947
 23
186.3560195406113
 33
0.0
 14
66.66935643751947
 24
175.9786343727044
 34
0.0
  0
DIMENSION
  5
CCD
330
1B
100
AcDbEntity
 67
     1
  8
0
100
AcDbDimension
  2
*D4
 10
68.25277517384893
 20
173.9786343727043
 30
0.0
 11
66.1277751738489
 21
166.8536343727044
 31
0.0
 70
    33
  1
%%c2
 71
     5
 42
2.0
  3
ISO-25
100
AcDbAlignedDimension
 13
68.25277517384893
 23
175.9786343727044
 33
0.0
 14
68.25277517384893
 24
173.9786343727043
 34
0.0
  0
ARC
  5
DA1
330
1B
100
AcDbEntity
 67
     1
  8
２
 62
     0
 48
0.2
100
AcDbCircle
 10
303.181717265228
 20
177.513637687991
 30
0.0
 40
1.0
100
AcDbArc
 50
175.7397928576405
 51
4.236815550563963
  0
ARC
  5
DA2
330
1B
100
AcDbEntity
 67
     1
  8
２
 62
     0
 48
0.2
100
AcDbCircle
 10
305.181717265228
 20
177.513637687991
 30
0.0
 40
1.0
100
AcDbArc
 50
175.7397928576405
 51
359.9999999999968
  0
ARC
  5
DA3
330
1B
100
AcDbEntity
 67
     1
  8
２
 62
     0
 48
0.2
100
AcDbCircle
 10
307.181717265228
 20
177.513637687991
 30
0.0
 40
1.0
100
AcDbArc
 50
175.7397928576405
 51
4.236815550563963
  0
ARC
  5
DA4
330
1B
100
AcDbEntity
 67
     1
  8
２
 62
     0
 48
0.2
100
AcDbCircle
 10
309.181717265228
 20
177.513637687991
 30
0.0
 40
1.0
100
AcDbArc
 50
180.0
 51
4.236815550563963
  0
ARC
  5
DA5
330
1B
100
AcDbEntity
 67
     1
  8
２
 62
     0
 48
0.2
100
AcDbCircle
 10
311.181717265228
 20
177.513637687991
 30
0.0
 40
1.0
100
AcDbArc
 50
175.7397928576405
 51
359.9999999999968
  0
ARC
  5
DA6
330
1B
100
AcDbEntity
 67
     1
  8
２
 62
     0
 48
0.2
100
AcDbCircle
 10
313.181717265228
 20
177.513637687991
 30
0.0
 40
1.0
100
AcDbArc
 50
175.7397928576405
 51
4.236815550563963
  0
ARC
  5
DA7
330
1B
100
AcDbEntity
 67
     1
  8
２
 62
     0
 48
0.2
100
AcDbCircle
 10
315.181717265228
 20
177.513637687991
 30
0.0
 40
1.0
100
AcDbArc
 50
175.7397928576405
 51
4.236815550563963
  0
ARC
  5
DA8
330
1B
100
AcDbEntity
 67
     1
  8
２
 62
     0
 48
0.2
100
AcDbCircle
 10
317.181717265228
 20
177.513637687991
 30
0.0
 40
1.0
100
AcDbArc
 50
175.7397928576405
 51
354.8573015335517
  0
ARC
  5
DA9
330
1B
100
AcDbEntity
 67
     1
  8
２
 62
     0
 48
0.2
100
AcDbCircle
 10
321.0946007369979
 20
176.9309536000948
 30
0.0
 40
1.0
100
AcDbArc
 50
173.8258247907293
 51
0.000000000000007
  0
LINE
  5
DAA
330
1B
100
AcDbEntity
 67
     1
  8
２
 62
     0
 48
0.2
100
AcDbLine
 10
310.181717265228
 20
177.5136376879909
 30
0.0
 11
310.6289431382898
 21
189.5376297471976
 31
0.0
  0
LINE
  5
DAB
330
1B
100
AcDbEntity
 67
     1
  8
２
 62
     0
 48
0.2
100
AcDbLine
 10
312.181717265228
 20
177.5136376879909
 30
0.0
 11
312.6289431382898
 21
189.5376297471976
 31
0.0
  0
LINE
  5
DAC
330
1B
100
AcDbEntity
 67
     1
  8
２
 62
     0
 48
0.2
100
AcDbLine
 10
306.181717265228
 20
177.5136376879909
 30
0.0
 11
306.6289431382898
 21
189.5376297471976
 31
0.0
  0
LINE
  5
DAD
330
1B
100
AcDbEntity
 67
     1
  8
２
 62
     0
 48
0.2
100
AcDbLine
 10
308.181717265228
 20
177.5136376879909
 30
0.0
 11
308.6289431382898
 21
189.5376297471976
 31
0.0
  0
LINE
  5
DAE
330
1B
100
AcDbEntity
 67
     1
  8
２
 62
     0
 48
0.2
100
AcDbLine
 10
302.181717265228
 20
177.5136376879909
 30
0.0
 11
302.6289431382898
 21
189.5376297471976
 31
0.0
  0
LINE
  5
DAF
330
1B
100
AcDbEntity
 67
     1
  8
２
 62
     0
 48
0.2
100
AcDbLine
 10
304.181717265228
 20
177.5136376879909
 30
0.0
 11
304.6289431382898
 21
189.5376297471976
 31
0.0
  0
LINE
  5
DB0
330
1B
100
AcDbEntity
 67
     1
  8
２
 62
     0
 48
0.2
100
AcDbLine
 10
318.181717265228
 20
177.5136376879909
 30
0.0
 11
318.6289431382898
 21
189.5376297471976
 31
0.0
  0
LINE
  5
DB1
330
1B
100
AcDbEntity
 67
     1
  8
２
 62
     0
 48
0.2
100
AcDbLine
 10
314.181717265228
 20
177.5136376879909
 30
0.0
 11
314.6289431382898
 21
189.5376297471976
 31
0.0
  0
LINE
  5
DB2
330
1B
100
AcDbEntity
 67
     1
  8
２
 62
     0
 48
0.2
100
AcDbLine
 10
316.181717265228
 20
177.5136376879909
 30
0.0
 11
316.6289431382898
 21
189.5376297471976
 31
0.0
  0
LINE
  5
DB3
330
1B
100
AcDbEntity
 67
     1
  8
２
 62
     0
 48
0.2
100
AcDbLine
 10
318.1776918074689
 20
177.4240011373648
 30
0.0
 11
318.6249176805307
 21
189.4479931965714
 31
0.0
  0
LINE
  5
DB4
330
1B
100
AcDbEntity
 67
     1
  8
２
 62
     0
 48
0.2
100
AcDbLine
 10
324.1167387862673
 20
175.7229936334533
 30
0.0
 11
324.6897867088947
 21
191.1406252153884
 31
0.0
  0
LINE
  5
DB5
330
1B
100
AcDbEntity
 67
     1
  8
２
 62
     0
 48
0.2
100
AcDbLine
 10
328.0853270766214
 20
174.8787371334246
 30
0.0
 11
328.7172306893631
 21
191.824033940822
 31
0.0
  0
LINE
  5
DB6
330
1B
100
AcDbEntity
 67
     1
  8
２
 62
     0
 48
0.2
100
AcDbLine
 10
326.1009695351095
 20
175.2996824043356
 30
0.0
 11
326.7179252667828
 21
191.8612988358507
 31
0.0
  0
LINE
  5
DB7
330
1B
100
AcDbEntity
 67
     1
  8
２
 62
     0
 48
0.2
100
AcDbLine
 10
322.0951392529576
 20
176.4246653647723
 30
0.0
 11
322.6250530374478
 21
189.4514695493127
 31
0.0
  0
ARC
  5
DB8
330
1B
100
AcDbEntity
 67
     1
  8
２
 62
     0
 48
0.2
100
AcDbCircle
 10
344.0151009253612
 20
183.9699666042777
 30
0.0
 40
7.991332231573323
100
AcDbArc
 50
270.0
 51
83.09125913760295
  0
LINE
  5
DBA
330
1B
100
AcDbEntity
 67
     1
  8
２
 62
     0
 48
0.2
100
AcDbLine
 10
320.1776918074689
 20
177.4240011373648
 30
0.0
 11
320.6249176805307
 21
189.4479931965714
 31
0.0
  0
ARC
  5
DBB
330
1B
100
AcDbEntity
 67
     1
  8
２
 62
     0
 48
0.2
100
AcDbCircle
 10
344.0151009253612
 20
183.9699666042777
 30
0.0
 40
9.991332231573323
100
AcDbArc
 50
270.0
 51
84.52916316503978
  0
LINE
  5
DBC
330
1B
100
AcDbEntity
 67
     1
  8
２
 62
     0
 48
0.2
100
AcDbLine
 10
327.0480324482183
 20
173.9786343727043
 30
0.0
 11
342.0151009253612
 21
173.9786343727043
 31
0.0
  0
LINE
  5
DBD
330
1B
100
AcDbEntity
 67
     1
  8
２
 62
     0
 48
0.2
100
AcDbLine
 10
328.1263431206037
 20
175.9786343727044
 30
0.0
 11
342.0151009253612
 21
175.9786343727044
 31
0.0
  0
LINE
  5
DBE
330
1B
100
AcDbEntity
 67
     1
  8
２
 62
     0
 48
0.2
100
AcDbLine
 10
342.0151009253612
 20
175.9786343727044
 30
0.0
 11
344.0151009253612
 21
175.9786343727044
 31
0.0
  0
LINE
  5
DBF
330
1B
100
AcDbEntity
 67
     1
  8
２
 62
     0
 48
0.2
100
AcDbLine
 10
342.0151009253612
 20
173.9786343727043
 30
0.0
 11
344.4464402428978
 21
173.9879494657018
 31
0.0
  0
ARC
  5
DC0
330
1B
100
AcDbEntity
 67
     1
  8
２
 62
     0
 48
0.2
100
AcDbCircle
 10
325.1167387862673
 20
175.7229936334533
 30
0.0
 40
1.0
100
AcDbArc
 50
175.7427805664478
 51
336.72777506244
  0
ARC
  5
DC1
330
1B
100
AcDbEntity
 67
     1
  8
２
 62
     0
 48
0.2
100
AcDbCircle
 10
327.0480324482183
 20
174.9786343727044
 30
0.0
 40
1.0
100
AcDbArc
 50
160.9709839957629
 51
0.000000000000007
  0
ARC
  5
DC2
330
1B
100
AcDbEntity
 67
     1
  8
２
 62
     0
 48
0.2
100
AcDbCircle
 10
319.1776918074689
 20
177.4240011373648
 30
0.0
 40
1.0
100
AcDbArc
 50
174.8573015335566
 51
353.8258247899021
  0
ARC
  5
DC3
330
1B
100
AcDbEntity
 67
     1
  8
２
 62
     0
 48
0.2
100
AcDbCircle
 10
323.0951392529576
 20
176.4246653647723
 30
0.0
 40
1.0
100
AcDbArc
 50
175.3411301234462
 51
0.000000000000007
  0
ARC
  5
DC4
330
1B
100
AcDbEntity
 67
     1
  8
２
 62
     0
 48
0.2
100
AcDbCircle
 10
317.6282521412959
 20
189.5004609900055
 30
0.0
 40
1.0
100
AcDbArc
 50
2.127164517882654
 51
185.1016795241375
  0
LINE
  5
DC6
330
1B
100
AcDbEntity
 67
     1
  8
２
 62
     0
 48
0.2
100
AcDbLine
 10
339.2332418404213
 20
186.9660195406113
 30
0.0
 11
339.2332418404213
 21
189.9032737939496
 31
0.0
  0
LINE
  5
DC7
330
1B
100
AcDbEntity
 67
     1
  8
２
 62
     0
 48
0.2
100
AcDbLine
 10
337.2332418404213
 20
186.9660195406113
 30
0.0
 11
337.2332418404213
 21
189.975593773992
 31
0.0
  0
LINE
  5
DC8
330
1B
100
AcDbEntity
 67
     1
  8
２
 62
     0
 48
0.2
100
AcDbLine
 10
339.2332418404213
 20
188.0224097028536
 30
0.0
 11
339.2332418404213
 21
186.3560195406113
 31
0.0
  0
LINE
  5
DC9
330
1B
100
AcDbEntity
 67
     1
  8
２
 62
     0
 48
0.2
100
AcDbLine
 10
337.2332418404213
 20
188.0224097028536
 30
0.0
 11
337.2332418404213
 21
186.3560195406113
 31
0.0
  0
LINE
  5
DCA
330
1B
100
AcDbEntity
 67
     1
  8
２
 62
     0
 48
0.2
100
AcDbLine
 10
337.2332418404213
 20
186.3560195406113
 30
0.0
 11
339.2332418404213
 21
186.3560195406113
 31
0.0
  0
ARC
  5
DCB
330
1B
100
AcDbEntity
 67
     1
  8
２
 62
     0
 48
0.2
100
AcDbCircle
 10
342.2332418404213
 20
188.0224097028537
 30
0.0
 40
5.006296784784291
100
AcDbArc
 50
177.1260163704189
 51
180.0
  0
LINE
  5
DCC
330
1B
100
AcDbEntity
 67
     1
  8
２
 62
     0
 48
0.2
100
AcDbLine
 10
344.9763646091049
 20
191.9032737939495
 30
0.0
 11
341.2332418404213
 21
191.9032737939495
 31
0.0
  0
LINE
  5
DCD
330
1B
100
AcDbEntity
 67
     1
  8
２
 62
     0
 48
0.2
100
AcDbLine
 10
344.9676654500088
 20
193.915786861454
 30
0.0
 11
341.1004536452152
 21
193.915786861454
 31
0.0
  0
ARC
  5
DCE
330
1B
100
AcDbEntity
 67
     1
  8
２
 62
     0
 48
0.2
100
AcDbCircle
 10
341.2332418404213
 20
189.9032737939496
 30
0.0
 40
2.0
100
AcDbArc
 50
90.0
 51
180.0
  0
ARC
  5
DCF
330
1B
100
AcDbEntity
 67
     1
  8
２
 62
     0
 48
0.2
100
AcDbCircle
 10
341.2332418404213
 20
189.9032737939496
 30
0.0
 40
4.0
100
AcDbArc
 50
91.89542747806218
 51
180.0
  0
ARC
  5
DD0
330
1B
100
AcDbEntity
 67
     1
  8
２
 62
     0
 48
0.2
100
AcDbCircle
 10
325.68909668065
 20
191.1034825128707
 30
0.0
 40
1.0
100
AcDbArc
 50
0.000000000000007
 51
180.0
  0
ARC
  5
DD1
330
1B
100
AcDbEntity
 67
     1
  8
２
 62
     0
 48
0.2
100
AcDbCircle
 10
327.717925266783
 20
191.8612988358508
 30
0.0
 40
1.0
100
AcDbArc
 50
357.864384317803
 51
180.0000000000016
  0
ARC
  5
DD2
330
1B
100
AcDbEntity
 67
     1
  8
２
 62
     0
 48
0.2
100
AcDbCircle
 10
323.661912806706
 20
190.4101140651238
 30
0.0
 40
1.0
100
AcDbArc
 50
0.000000000000007
 51
180.0
  0
ARC
  5
DD3
330
1B
100
AcDbEntity
 67
     1
  8
２
 62
     0
 48
0.2
100
AcDbCircle
 10
321.6445492385036
 20
189.9104112624237
 30
0.0
 40
1.0
100
AcDbArc
 50
0.000000000000007
 51
180.0
  0
ARC
  5
DD4
330
1B
100
AcDbEntity
 67
     1
  8
２
 62
     0
 48
0.2
100
AcDbCircle
 10
319.6242266835369
 20
189.4108244393793
 30
0.0
 40
1.0
100
AcDbArc
 50
2.127164517884282
 51
180.6733856060552
  0
ARC
  5
DD5
330
1B
100
AcDbEntity
 67
     1
  8
２
 62
     0
 48
0.2
100
AcDbCircle
 10
301.5924120971691
 20
188.5756067773153
 30
0.0
 40
1.0
100
AcDbArc
 50
0.000000000000007
 51
180.0000000000032
  0
ARC
  5
DD6
330
1B
100
AcDbEntity
 67
     1
  8
２
 62
     0
 48
0.2
100
AcDbCircle
 10
301.2203298686
 20
178.5873971956781
 30
0.0
 40
1.0
100
AcDbArc
 50
175.7331916475938
 51
0.000000000000007
  0
ARC
  5
DD7
330
1B
100
AcDbEntity
 67
     1
  8
２
 62
     0
 48
0.2
100
AcDbCircle
 10
313.6282521412959
 20
189.5004609900055
 30
0.0
 40
1.0
100
AcDbArc
 50
2.127164517882654
 51
185.1016795241375
  0
ARC
  5
DD8
330
1B
100
AcDbEntity
 67
     1
  8
２
 62
     0
 48
0.2
100
AcDbCircle
 10
311.6282521412959
 20
189.5004609900055
 30
0.0
 40
1.0
100
AcDbArc
 50
354.857301533553
 51
177.86989642882
  0
ARC
  5
DD9
330
1B
100
AcDbEntity
 67
     1
  8
２
 62
     0
 48
0.2
100
AcDbCircle
 10
309.6282521412959
 20
189.5004609900055
 30
0.0
 40
1.0
100
AcDbArc
 50
354.8573015335529
 51
185.1016795241375
  0
ARC
  5
DDA
330
1B
100
AcDbEntity
 67
     1
  8
２
 62
     0
 48
0.2
100
AcDbCircle
 10
307.6282521412959
 20
189.5004609900055
 30
0.0
 40
1.0
100
AcDbArc
 50
354.857301533553
 51
177.86989642882
  0
ARC
  5
DDB
330
1B
100
AcDbEntity
 67
     1
  8
２
 62
     0
 48
0.2
100
AcDbCircle
 10
305.628252141296
 20
189.5004609900055
 30
0.0
 40
1.0
100
AcDbArc
 50
2.127164517882654
 51
185.1016795241375
  0
ARC
  5
DDC
330
1B
100
AcDbEntity
 67
     1
  8
２
 62
     0
 48
0.2
100
AcDbCircle
 10
315.6282521412959
 20
189.5004609900055
 30
0.0
 40
1.0
100
AcDbArc
 50
2.127164517881
 51
180.0
  0
ARC
  5
DDD
330
1B
100
AcDbEntity
 67
     1
  8
２
 62
     0
 48
0.2
100
AcDbCircle
 10
303.628252141296
 20
189.5004609900055
 30
0.0
 40
1.0
100
AcDbArc
 50
2.127164517881
 51
180.0
  0
ARC
  5
DDE
330
1B
100
AcDbEntity
 67
     1
  8
２
 62
     0
 48
0.2
100
AcDbCircle
 10
299.561426188195
 20
187.7810574153273
 30
0.0
 40
1.0
100
AcDbArc
 50
0.000000000000007
 51
177.8665958237983
  0
ARC
  5
DDF
330
1B
100
AcDbEntity
 67
     1
  8
２
 62
     0
 48
0.2
100
AcDbCircle
 10
299.2637966071248
 20
179.7914615540674
 30
0.0
 40
1.0
100
AcDbArc
 50
177.8665958237983
 51
350.4374159917257
  0
LINE
  5
DE0
330
1B
100
AcDbEntity
 67
     1
  8
２
 62
     0
 48
0.2
100
AcDbLine
 10
298.2644897469361
 20
179.8286878778167
 30
0.0
 11
298.5621193280063
 21
187.8182837390766
 31
0.0
  0
LINE
  5
DE1
330
1B
100
AcDbEntity
 67
     1
  8
２
 62
     0
 48
0.2
100
AcDbLine
 10
300.2203298686
 20
178.587397195678
 30
0.0
 11
300.5924120971691
 21
188.5756067773152
 31
0.0
  0
LINE
  5
E5B
330
1B
100
AcDbEntity
 67
     1
  8
0
100
AcDbLine
 10
290.4187612612724
 20
184.2100435374724
 30
0.0
 11
290.4187612612724
 21
185.7234858084467
 31
0.0
  0
LINE
  5
E5C
330
1B
100
AcDbEntity
 67
     1
  8
0
100
AcDbLine
 10
290.5187612612725
 20
185.8234858084467
 30
0.0
 11
298.4932655506604
 21
185.8234858084467
 31
0.0
  0
LINE
  5
E5E
330
1B
100
AcDbEntity
 67
     1
  8
0
100
AcDbLine
 10
298.3442569718845
 20
181.8234858084467
 30
0.0
 11
290.5187612612725
 21
181.8234858084467
 31
0.0
  0
LINE
  5
E5F
330
1B
100
AcDbEntity
 67
     1
  8
0
100
AcDbLine
 10
290.4187612612724
 20
183.8234858084467
 30
0.0
 11
290.4187612612724
 21
181.9234858084467
 31
0.0
  0
LINE
  5
E61
330
1B
100
AcDbEntity
 67
     1
  8
0
100
AcDbLine
 10
290.5187612612725
 20
185.8234858084467
 30
0.0
 11
290.4187612612724
 21
185.7234858084467
 31
0.0
  0
LINE
  5
E62
330
1B
100
AcDbEntity
 67
     1
  8
0
100
AcDbLine
 10
290.4187612612724
 20
181.9234858084467
 30
0.0
 11
290.5187612612725
 21
181.8234858084467
 31
0.0
  0
LINE
  5
E64
330
1B
100
AcDbEntity
 67
     1
  8
0
100
AcDbLine
 10
362.3034552307749
 20
185.0734858084467
 30
0.0
 11
353.9453056124614
 21
185.0734858084467
 31
0.0
  0
LINE
  5
E65
330
1B
100
AcDbEntity
 67
     1
  8
0
100
AcDbLine
 10
362.3034552307749
 20
182.5734858084467
 30
0.0
 11
353.9083592939955
 21
182.5734858084467
 31
0.0
  0
LINE
  5
E6A
330
1B
100
AcDbEntity
 67
     1
  8
0
100
AcDbLine
 10
362.3034552307749
 20
185.0734858084467
 30
0.0
 11
362.3034552307749
 21
182.5734858084467
 31
0.0
  0
LINE
  5
E6C
330
1B
100
AcDbEntity
 67
     1
  8
0
100
AcDbLine
 10
351.9298742134228
 20
185.0734858084467
 30
0.0
 11
328.4654973735458
 21
185.0734858084467
 31
0.0
  0
LINE
  5
E6D
330
1B
100
AcDbEntity
 67
     1
  8
0
100
AcDbLine
 10
351.8834700208128
 20
182.5734858084467
 30
0.0
 11
328.3722703826108
 21
182.5734858084467
 31
0.0
  0
LINE
  5
E70
330
1B
100
AcDbEntity
 67
     1
  8
0
100
AcDbLine
 10
290.4187612612724
 20
182.8734858084467
 30
0.0
 11
290.4187612612724
 21
184.9667646729595
 31
0.0
  0
LEADER
  5
E97
330
1B
100
AcDbEntity
 67
     1
  8
0
100
AcDbLeader
  3
ISO-25
 73
     0
 40
3.000000000000001
 41
35.60000000000001
 76
     3
 10
309.6282521412959
 20
190.5004609900055
 30
0.0
 10
297.4685581168691
 20
200.7418770265428
 30
0.0
 10
296.0963579615895
 20
200.7418770265428
 30
0.0
340
E98
213
0.0
223
1.5
233
0.0
1001
ACAD
1000
DSTYLE
1002
{
1070
   147
1040
0.625
1070
    77
1070
     0
1002
}
  0
MTEXT
  5
E98
102
{ACAD_REACTORS
330
E97
102
}
330
1B
100
AcDbEntity
 67
     1
  8
0
100
AcDbMText
 10
295.4713579615895
 20
199.2418770265428
 30
0.0
 40
3.0
 41
0.0
 71
     9
 72
     1
  1
ワイヤーグリップ内蔵
 73
     1
 44
1.0
  0
LEADER
  5
E99
330
1B
100
AcDbEntity
 67
     1
  8
0
100
AcDbLeader
  3
ISO-25
 73
     0
 40
3.0
 41
28.39999999999999
 76
     3
 10
294.4315091165785
 20
181.8234858084467
 30
0.0
 10
285.2782654558655
 20
169.5009509893815
 30
0.0
 10
283.9927660460225
 20
169.5009509893815
 30
0.0
340
E9A
213
0.0
223
1.5
233
0.0
1001
ACAD
1000
DSTYLE
1002
{
1070
   147
1040
0.625
1070
    77
1070
     0
1002
}
  0
MTEXT
  5
E9A
102
{ACAD_REACTORS
330
E99
102
}
330
1B
100
AcDbEntity
 67
     1
  8
0
100
AcDbMText
 10
283.3677660460225
 20
168.0009509893815
 30
0.0
 40
3.0
 41
0.0
 71
     9
 72
     1
  1
グリップ解除ピン
 73
     1
 44
1.0
  0
DIMENSION
  5
EA4
330
1B
100
AcDbEntity
 67
     1
  8
0
100
AcDbDimension
  2
*D5
 10
106.5015997919579
 20
211.0363439412994
 30
0.0
 11
78.70457469625198
 21
213.1613439412995
 31
0.0
 70
    33
  1
57
 71
     5
 42
55.59405019141189
  3
ISO-25
100
AcDbAlignedDimension
 13
50.90754960054603
 23
183.4931410299246
 33
0.0
 14
106.5015997919579
 24
183.4931410299246
 34
0.0
  0
LINE
  5
10D8
330
1B
100
AcDbEntity
 67
     1
  8
２
 62
     0
 48
0.2
100
AcDbLine
 10
312.7187612612725
 20
82.40124338757423
 30
0.0
 11
325.9187612612724
 21
82.40124338757423
 31
0.0
  0
LINE
  5
10DB
330
1B
100
AcDbEntity
 67
     1
  8
２
 62
     0
 48
0.2
100
AcDbLine
 10
325.9187612612724
 20
91.90124338757422
 30
0.0
 11
312.7187612612725
 21
91.90124338757422
 31
0.0
  0
LINE
  5
10E1
330
1B
100
AcDbEntity
 67
     1
  8
0
100
AcDbLine
 10
312.7187612612725
 20
82.40124338757423
 30
0.0
 11
308.9187612612724
 21
82.40124338757425
 31
0.0
  0
LINE
  5
10E2
330
1B
100
AcDbEntity
 67
     1
  8
0
100
AcDbLine
 10
312.7187612612725
 20
91.90124338757422
 30
0.0
 11
308.9187612612724
 21
91.90124338757426
 31
0.0
  0
LINE
  5
10E9
330
1B
100
AcDbEntity
 67
     1
  8
２
 62
     0
 48
0.2
100
AcDbLine
 10
300.9187612612724
 20
90.65124338757426
 30
0.0
 11
300.9187612612724
 21
89.22618366391606
 31
0.0
  0
LINE
  5
10EA
330
1B
100
AcDbEntity
 67
     1
  8
0
100
AcDbLine
 10
300.9187612612724
 20
90.65124338757426
 30
0.0
 11
300.9187612612724
 21
89.22618366391606
 31
0.0
  0
LINE
  5
10EB
330
1B
100
AcDbEntity
 67
     1
  8
0
100
AcDbLine
 10
308.9187612612724
 20
92.15124338757425
 30
0.0
 11
308.9187612612724
 21
91.90124338757426
 31
0.0
  0
LINE
  5
10EE
330
1B
100
AcDbEntity
 67
     1
  8
0
100
AcDbLine
 10
300.9187612612724
 20
85.076183663916
 30
0.0
 11
300.9187612612724
 21
83.65124338757425
 31
0.0
  0
LINE
  5
10EF
330
1B
100
AcDbEntity
 67
     1
  8
２
 62
     0
 48
0.2
100
AcDbLine
 10
300.9187612612724
 20
85.076183663916
 30
0.0
 11
300.9187612612724
 21
83.65124338757425
 31
0.0
  0
LINE
  5
10F4
330
1B
100
AcDbEntity
 67
     1
  8
0
100
AcDbLine
 10
308.9187612612724
 20
82.40124338757425
 30
0.0
 11
308.9187612612724
 21
82.15124338757425
 31
0.0
  0
LINE
  5
1109
330
1B
100
AcDbEntity
 67
     1
  8
２
 62
     0
 48
0.2
100
AcDbLine
 10
325.9187612612724
 20
90.66374338757421
 30
0.0
 11
325.9187612612724
 21
91.90124338757422
 31
0.0
  0
LINE
  5
110A
330
1B
100
AcDbEntity
 67
     1
  8
２
 62
     0
 48
0.2
100
AcDbLine
 10
325.9187612612724
 20
82.40124338757423
 30
0.0
 11
325.9187612612724
 21
83.63874338757421
 31
0.0
  0
LINE
  5
118C
330
1B
100
AcDbEntity
 67
     1
  8
0
 62
     0
100
AcDbLine
 10
300.9187612612724
 20
85.15118366391604
 30
0.0
 11
290.5187612612725
 21
85.15118366391602
 31
0.0
  0
LINE
  5
118D
330
1B
100
AcDbEntity
 67
     1
  8
0
 62
     0
100
AcDbLine
 10
290.5187612612725
 20
89.15118366391604
 30
0.0
 11
300.9187612612724
 21
89.15118366391604
 31
0.0
  0
LINE
  5
118E
330
1B
100
AcDbEntity
 67
     1
  8
２
 62
     0
 48
0.2
100
AcDbLine
 10
300.9187612612724
 20
89.15118366391604
 30
0.0
 11
292.9187612612725
 21
89.15118366391604
 31
0.0
  0
LINE
  5
118F
330
1B
100
AcDbEntity
 67
     1
  8
２
 62
     0
 48
0.2
100
AcDbLine
 10
292.9187612612725
 20
85.15118366391604
 30
0.0
 11
300.9187612612724
 21
85.15118366391604
 31
0.0
  0
LINE
  5
1190
330
1B
100
AcDbEntity
 67
     1
  8
２
 62
     0
 48
0.2
100
AcDbLine
 10
290.5187612612725
 20
85.15118366391604
 30
0.0
 11
292.9187612612725
 21
85.15118366391604
 31
0.0
  0
LINE
  5
1191
330
1B
100
AcDbEntity
 67
     1
  8
２
 62
     0
 48
0.2
100
AcDbLine
 10
290.5187612612725
 20
89.15118366391604
 30
0.0
 11
292.9187612612725
 21
89.15118366391604
 31
0.0
  0
LINE
  5
1194
330
1B
100
AcDbEntity
 67
     1
  8
２
 62
     0
 48
0.2
100
AcDbLine
 10
290.4187612612724
 20
89.05118366391604
 30
0.0
 11
290.4187612612724
 21
85.251183663916
 31
0.0
  0
LINE
  5
119C
330
1B
100
AcDbEntity
 67
     1
  8
0
100
AcDbLine
 10
325.9187612612724
 20
90.66374338757421
 30
0.0
 11
325.9187612612724
 21
83.63874338757424
 31
0.0
  0
LINE
  5
119D
330
1B
100
AcDbEntity
 67
     1
  8
0
100
AcDbLine
 10
300.9187612612724
 20
89.22618366391606
 30
0.0
 11
300.9187612612724
 21
85.15118366391604
 31
0.0
  0
LINE
  5
119E
330
1B
100
AcDbEntity
 67
     1
  8
0
 48
0.2
100
AcDbLine
 10
290.5187612612725
 20
89.15118366391604
 30
0.0
 11
290.4187612612724
 21
89.05118366391604
 31
0.0
  0
LINE
  5
119F
330
1B
100
AcDbEntity
 67
     1
  8
0
 48
0.2
100
AcDbLine
 10
290.5187612612725
 20
85.15118366391602
 30
0.0
 11
290.4187612612724
 21
85.251183663916
 31
0.0
  0
LINE
  5
11E6
330
1B
100
AcDbEntity
 67
     1
  8
0
100
AcDbLine
 10
300.9187612612724
 20
90.65124338757426
 30
0.0
 11
308.9187612612724
 21
92.15124338757425
 31
0.0
  0
LINE
  5
11E7
330
1B
100
AcDbEntity
 67
     1
  8
0
100
AcDbLine
 10
300.9187612612724
 20
83.65124338757425
 30
0.0
 11
308.9187612612724
 21
82.15124338757425
 31
0.0
  0
LINE
  5
11EB
330
1B
100
AcDbEntity
 67
     1
  8
0
100
AcDbLine
 10
103.2856627618373
 20
85.90118366391605
 30
0.0
 11
103.2856627618373
 21
88.40118366391605
 31
0.0
  0
LINE
  5
11EC
330
1B
100
AcDbEntity
 67
     1
  8
0
100
AcDbLine
 10
103.2856627618373
 20
87.15118366391605
 30
0.0
 11
103.2856627618373
 21
90.65118366391605
 31
0.0
  0
LINE
  5
11ED
330
1B
100
AcDbEntity
 67
     1
  8
0
100
AcDbLine
 10
103.2856627618373
 20
90.65118366391605
 30
0.0
 11
97.28566276183732
 21
90.65118366391605
 31
0.0
  0
LINE
  5
11EE
330
1B
100
AcDbEntity
 67
     1
  8
0
100
AcDbLine
 10
97.28566276183732
 20
90.65118366391605
 30
0.0
 11
97.28566276183732
 21
83.65118366391603
 31
0.0
  0
LINE
  5
11EF
330
1B
100
AcDbEntity
 67
     1
  8
0
100
AcDbLine
 10
97.28566276183732
 20
83.65118366391603
 30
0.0
 11
103.2856627618373
 21
83.65118366391603
 31
0.0
  0
LINE
  5
11F0
330
1B
100
AcDbEntity
 67
     1
  8
0
100
AcDbLine
 10
103.2856627618373
 20
83.65118366391603
 30
0.0
 11
103.2856627618373
 21
85.90118366391605
 31
0.0
  0
LINE
  5
11F2
330
1B
100
AcDbEntity
 67
     1
  8
0
100
AcDbLine
 10
95.89083373011408
 20
88.40118366391605
 30
0.0
 11
95.89083373011408
 21
85.90118366391605
 31
0.0
  0
LINE
  5
11F3
330
1B
100
AcDbEntity
 67
     1
  8
0
100
AcDbLine
 10
95.89083373011408
 20
85.90118366391605
 30
0.0
 11
97.28566276183732
 21
85.90118366391605
 31
0.0
  0
LINE
  5
11F4
330
1B
100
AcDbEntity
 67
     1
  8
0
100
AcDbLine
 10
95.89083373011408
 20
88.40118366391605
 30
0.0
 11
97.28566276183732
 21
88.40118366391605
 31
0.0
  0
LINE
  5
11F8
330
1B
100
AcDbEntity
 67
     1
  8
0
100
AcDbLine
 10
362.3034552307749
 20
88.40124338757423
 30
0.0
 11
353.9453056124614
 21
88.40124338757423
 31
0.0
  0
LINE
  5
11F9
330
1B
100
AcDbEntity
 67
     1
  8
0
100
AcDbLine
 10
362.3034552307749
 20
85.90124338757423
 30
0.0
 11
353.9083592939955
 21
85.90124338757423
 31
0.0
  0
LINE
  5
11FA
330
1B
100
AcDbEntity
 67
     1
  8
0
100
AcDbLine
 10
362.3034552307749
 20
88.40124338757423
 30
0.0
 11
362.3034552307749
 21
85.90124338757423
 31
0.0
  0
LINE
  5
11FB
330
1B
100
AcDbEntity
 67
     1
  8
0
100
AcDbLine
 10
351.8834700208128
 20
85.90124338757423
 30
0.0
 11
328.3722703826108
 21
85.90124338757425
 31
0.0
  0
LINE
  5
11FC
330
1B
100
AcDbEntity
 67
     1
  8
0
100
AcDbLine
 10
351.9298742134228
 20
88.40124338757423
 30
0.0
 11
328.4654973735458
 21
88.40124338757423
 31
0.0
  0
LINE
  5
11FE
330
1B
100
AcDbEntity
 67
     1
  8
0
100
AcDbLine
 10
330.1654826268495
 20
88.40124338757423
 30
0.0
 11
325.9187612612724
 21
88.40124338757425
 31
0.0
  0
LINE
  5
11FF
330
1B
100
AcDbEntity
 67
     1
  8
0
100
AcDbLine
 10
325.9187612612724
 20
88.40124338757425
 30
0.0
 11
328.042121944061
 21
88.40124338757423
 31
0.0
  0
LINE
  5
1200
330
1B
100
AcDbEntity
 67
     1
  8
0
100
AcDbLine
 10
362.3034552307749
 20
85.90124338757423
 30
0.0
 11
325.9187612612724
 21
85.90124338757423
 31
0.0
  0
LINE
  5
1201
330
1B
100
AcDbEntity
 67
     1
  8
0
100
AcDbLine
 10
362.3034552307749
 20
88.40124338757423
 30
0.0
 11
325.9187612612724
 21
88.40124338757425
 31
0.0
  0
LINE
  5
1202
330
1B
100
AcDbEntity
 67
     1
  8
0
100
AcDbLine
 10
114.0607937518966
 20
72.61033411130688
 30
0.0
 11
170.789232872265
 21
72.61033411130688
 31
0.0
  0
LINE
  5
1203
330
1B
100
AcDbEntity
 67
     1
  8
0
100
AcDbLine
 10
170.789232872265
 20
72.61033411130688
 30
0.0
 11
161.7642550205182
 21
76.04719035552353
 31
0.0
  0
LINE
  5
1204
330
1B
100
AcDbEntity
 67
     1
  8
0
100
AcDbLine
 10
161.7642550205182
 20
76.04719035552353
 30
0.0
 11
161.7642550205182
 21
72.61033411130688
 31
0.0
  0
LINE
  5
1205
330
1B
100
AcDbEntity
 67
     1
  8
0
100
AcDbLine
 10
288.5437191873281
 20
72.61033411130688
 30
0.0
 11
231.8152800669597
 21
72.61033411130688
 31
0.0
  0
LINE
  5
1206
330
1B
100
AcDbEntity
 67
     1
  8
0
100
AcDbLine
 10
240.8402579187066
 20
76.04719035552353
 30
0.0
 11
240.8402579187066
 21
72.61033411130688
 31
0.0
  0
LINE
  5
1207
330
1B
100
AcDbEntity
 67
     1
  8
0
100
AcDbLine
 10
231.8152800669597
 20
72.61033411130688
 30
0.0
 11
240.8402579187066
 21
76.04719035552353
 31
0.0
  0
MTEXT
  5
1208
330
1B
100
AcDbEntity
 67
     1
  8
0
100
AcDbMText
 10
116.6939402118832
 20
66.70276402113291
 30
0.0
 40
3.5
 41
0.0
 71
     1
 72
     5
  1
引張り静荷重　1400N以上
 73
     1
 44
1.0
  0
MTEXT
  5
1209
330
1B
100
AcDbEntity
 67
     1
  8
0
100
AcDbMText
 10
236.266929390131
 20
66.70276402113291
 30
0.0
 40
3.5
 41
0.0
 71
     1
 72
     5
  1
引張り静荷重　700N以上
 73
     1
 44
1.0
  0
LINE
  5
1341
330
1B
100
AcDbEntity
 67
     1
  8
2
 62
     0
100
AcDbLine
 10
151.4862895402395
 20
185.0234858084467
 30
0.0
 11
139.0953710772494
 21
185.0234858084467
 31
0.0
  0
LINE
  5
1342
330
1B
100
AcDbEntity
 67
     1
  8
2
 62
     0
100
AcDbLine
 10
142.9618964629919
 20
182.6234858084466
 30
0.0
 11
155.503182857385
 21
182.6234858084466
 31
0.0
  0
ARC
  5
1343
330
1B
100
AcDbEntity
 67
     1
  8
2
 62
     0
100
AcDbCircle
 10
151.4862895402395
 20
180.5234858084467
 30
0.0
 40
6.299999999999999
100
AcDbArc
 50
31.58813550520072
 51
134.4153085971882
  0
LINE
  5
1344
330
1B
100
AcDbEntity
 67
     1
  8
2
 62
     0
100
AcDbLine
 10
117.8862895402396
 20
185.0234858084467
 30
0.0
 11
108.6927257610154
 21
185.0234858084467
 31
0.0
  0
ARC
  5
1345
330
1B
100
AcDbEntity
 67
     1
  8
2
 62
     0
100
AcDbCircle
 10
117.8862895402396
 20
180.5234858084467
 30
0.0
 40
6.299999999999999
100
AcDbArc
 50
31.837363712227
 51
134.4153085971882
  0
LINE
  5
1346
330
1B
100
AcDbEntity
 67
     1
  8
2
 62
     0
100
AcDbLine
 10
109.4603146860842
 20
182.6234858084466
 30
0.0
 11
121.8512331490746
 21
182.6234858084466
 31
0.0
  0
ARC
  5
1347
330
1B
100
AcDbEntity
 67
     1
  8
2
 62
     0
100
AcDbCircle
 10
109.4603146860842
 20
187.1234858084466
 30
0.0
 40
6.299999999999999
100
AcDbArc
 50
263.0017220512028
 51
314.4153085971882
  0
ARC
  5
1348
330
1B
100
AcDbEntity
 67
     1
  8
2
 62
     0
100
AcDbCircle
 10
109.4603146860842
 20
187.1234858084466
 30
0.0
 40
4.5
100
AcDbArc
 50
259.5860406746098
 51
270.0
  0
LINE
  5
1349
330
1B
100
AcDbEntity
 67
     1
  8
2
 62
     0
100
AcDbLine
 10
126.2603146860844
 20
182.6234858084466
 30
0.0
 11
138.6512331490746
 21
182.6234858084466
 31
0.0
  0
LINE
  5
134A
330
1B
100
AcDbEntity
 67
     1
  8
2
 62
     0
100
AcDbLine
 10
134.6862895402396
 20
185.0234858084467
 30
0.0
 11
122.2953710772492
 21
185.0234858084467
 31
0.0
  0
ARC
  5
134B
330
1B
100
AcDbEntity
 67
     1
  8
2
 62
     0
100
AcDbCircle
 10
134.6862895402396
 20
180.5234858084467
 30
0.0
 40
6.299999999999999
100
AcDbArc
 50
31.837363712227
 51
134.4153085971882
  0
ARC
  5
134C
330
1B
100
AcDbEntity
 67
     1
  8
2
 62
     0
100
AcDbCircle
 10
126.2603146860844
 20
187.1234858084466
 30
0.0
 40
4.5
100
AcDbArc
 50
227.1665719339339
 51
270.0
  0
ARC
  5
134D
330
1B
100
AcDbEntity
 67
     1
  8
2
 62
     0
100
AcDbCircle
 10
126.2603146860844
 20
187.1234858084466
 30
0.0
 40
6.299999999999999
100
AcDbArc
 50
211.5881355052007
 51
314.4153085971882
  0
ARC
  5
134E
330
1B
100
AcDbEntity
 67
     1
  8
2
 62
     0
100
AcDbCircle
 10
117.8862895402396
 20
180.5234858084467
 30
0.0
 40
4.5
100
AcDbArc
 50
47.65545635581424
 51
90.24444221093082
  0
ARC
  5
134F
330
1B
100
AcDbEntity
 67
     1
  8
2
 62
     0
100
AcDbCircle
 10
143.0603146860844
 20
187.1234858084466
 30
0.0
 40
6.299999999999999
100
AcDbArc
 50
211.5881355052007
 51
314.4153085971882
  0
ARC
  5
1350
330
1B
100
AcDbEntity
 67
     1
  8
2
 62
     0
100
AcDbCircle
 10
143.0603146860844
 20
187.1234858084466
 30
0.0
 40
4.5
100
AcDbArc
 50
227.1665719339339
 51
270.0
  0
ARC
  5
1351
330
1B
100
AcDbEntity
 67
     1
  8
2
 62
     0
100
AcDbCircle
 10
134.6862895402396
 20
180.5234858084467
 30
0.0
 40
4.5
100
AcDbArc
 50
47.65545635581424
 51
90.24444221093082
  0
ARC
  5
1352
330
1B
100
AcDbEntity
 67
     1
  8
2
 62
     0
100
AcDbCircle
 10
280.057291145118
 20
187.1234858084466
 30
0.0
 40
4.5
100
AcDbArc
 50
227.1665719339339
 51
270.0
  0
ARC
  5
1353
330
1B
100
AcDbEntity
 67
     1
  8
2
 62
     0
100
AcDbCircle
 10
280.057291145118
 20
187.1234858084466
 30
0.0
 40
6.299999999999999
100
AcDbArc
 50
211.5881355052007
 51
314.4153085971882
  0
LINE
  5
1354
330
1B
100
AcDbEntity
 67
     1
  8
2
 62
     0
100
AcDbLine
 10
288.4832659992733
 20
185.0234858084467
 30
0.0
 11
276.0923475362832
 21
185.0234858084467
 31
0.0
  0
ARC
  5
1355
330
1B
100
AcDbEntity
 67
     1
  8
2
 62
     0
100
AcDbCircle
 10
211.99163232544
 20
187.1234858084466
 30
0.0
 40
6.299999999999999
100
AcDbArc
 50
263.0017220512028
 51
314.4153085971882
  0
LINE
  5
1356
330
1B
100
AcDbEntity
 67
     1
  8
2
 62
     0
100
AcDbLine
 10
220.4176071795953
 20
185.0234858084467
 30
0.0
 11
211.2240434003714
 21
185.0234858084467
 31
0.0
  0
LINE
  5
1357
330
1B
100
AcDbEntity
 67
     1
  8
2
 62
     0
100
AcDbLine
 10
211.99163232544
 20
182.6234858084466
 30
0.0
 11
224.3825507884306
 21
182.6234858084466
 31
0.0
  0
LINE
  5
1358
330
1B
100
AcDbEntity
 67
     1
  8
2
 62
     0
100
AcDbLine
 10
177.5259735057623
 20
182.6234858084466
 30
0.0
 11
189.9168919687525
 21
182.6234858084466
 31
0.0
  0
ARC
  5
1359
330
1B
100
AcDbEntity
 67
     1
  8
2
 62
     0
100
AcDbCircle
 10
177.5259735057623
 20
187.1234858084466
 30
0.0
 40
6.299999999999999
100
AcDbArc
 50
211.5881355052007
 51
314.4153085971882
  0
LINE
  5
135A
330
1B
100
AcDbEntity
 67
     1
  8
2
 62
     0
100
AcDbLine
 10
185.9519483599173
 20
185.0234858084467
 30
0.0
 11
173.5610298969271
 21
185.0234858084467
 31
0.0
  0
ARC
  5
135B
330
1B
100
AcDbEntity
 67
     1
  8
2
 62
     0
100
AcDbCircle
 10
160.7259735057622
 20
187.1234858084466
 30
0.0
 40
6.299999999999999
100
AcDbArc
 50
263.0017220512028
 51
314.4153085971882
  0
ARC
  5
135C
330
1B
100
AcDbEntity
 67
     1
  8
2
 62
     0
100
AcDbCircle
 10
169.1519483599175
 20
180.5234858084467
 30
0.0
 40
6.299999999999999
100
AcDbArc
 50
31.837363712227
 51
134.4153085971882
  0
LINE
  5
135D
330
1B
100
AcDbEntity
 67
     1
  8
2
 62
     0
100
AcDbLine
 10
169.1519483599175
 20
185.0234858084467
 30
0.0
 11
159.9583845806936
 21
185.0234858084467
 31
0.0
  0
LINE
  5
135E
330
1B
100
AcDbEntity
 67
     1
  8
2
 62
     0
100
AcDbLine
 10
160.7259735057622
 20
182.6234858084466
 30
0.0
 11
173.1168919687523
 21
182.6234858084466
 31
0.0
  0
LINE
  5
135F
330
1B
100
AcDbEntity
 67
     1
  8
2
 62
     0
100
AcDbLine
 10
159.9583845806936
 20
185.0234858084467
 30
0.0
 11
155.8953710772492
 21
185.0234858084467
 31
0.0
  0
ARC
  5
1360
330
1B
100
AcDbEntity
 67
     1
  8
2
 62
     0
100
AcDbCircle
 10
159.9122643943945
 20
187.1234858084466
 30
0.0
 40
6.299999999999999
100
AcDbArc
 50
211.5881355052007
 51
270.0
  0
ARC
  5
1361
330
1B
100
AcDbEntity
 67
     1
  8
2
 62
     0
100
AcDbCircle
 10
151.4862895402395
 20
180.5234858084467
 30
0.0
 40
4.5
100
AcDbArc
 50
47.1665719339339
 51
89.99999999999998
  0
ARC
  5
1362
330
1B
100
AcDbEntity
 67
     1
  8
2
 62
     0
100
AcDbCircle
 10
159.9122643943945
 20
187.1234858084466
 30
0.0
 40
4.5
100
AcDbArc
 50
227.1665719339339
 51
270.2533222070099
  0
ARC
  5
1363
330
1B
100
AcDbEntity
 67
     1
  8
2
 62
     0
100
AcDbCircle
 10
160.7259735057622
 20
187.1234858084466
 30
0.0
 40
4.5
100
AcDbArc
 50
259.5860406746098
 51
270.0
  0
ARC
  5
1364
330
1B
100
AcDbEntity
 67
     1
  8
2
 62
     0
100
AcDbCircle
 10
169.1519483599175
 20
180.5234858084467
 30
0.0
 40
4.5
100
AcDbArc
 50
47.65545635581424
 51
90.24444221093082
  0
ARC
  5
1365
330
1B
100
AcDbEntity
 67
     1
  8
2
 62
     0
100
AcDbCircle
 10
177.5259735057623
 20
187.1234858084466
 30
0.0
 40
4.5
100
AcDbArc
 50
227.1665719339339
 51
270.0
  0
ARC
  5
1366
330
1B
100
AcDbEntity
 67
     1
  8
2
 62
     0
100
AcDbCircle
 10
194.3259735057625
 20
187.1234858084466
 30
0.0
 40
6.299999999999999
100
AcDbArc
 50
211.5881355052007
 51
314.4153085971882
  0
LINE
  5
1367
330
1B
100
AcDbEntity
 67
     1
  8
2
 62
     0
100
AcDbLine
 10
194.2275552826698
 20
182.6234858084466
 30
0.0
 11
200.4883681209014
 21
182.6234858084466
 31
0.0
  0
LINE
  5
1368
330
1B
100
AcDbEntity
 67
     1
  8
2
 62
     0
100
AcDbLine
 10
200.4883681209014
 20
185.0234858084467
 30
0.0
 11
190.3610298969273
 21
185.0234858084467
 31
0.0
  0
ARC
  5
1369
330
1B
100
AcDbEntity
 67
     1
  8
2
 62
     0
100
AcDbCircle
 10
185.9519483599173
 20
180.5234858084467
 30
0.0
 40
6.299999999999999
100
AcDbArc
 50
31.837363712227
 51
134.4153085971882
  0
ARC
  5
136A
330
1B
100
AcDbEntity
 67
     1
  8
2
 62
     0
100
AcDbCircle
 10
185.9519483599173
 20
180.5234858084467
 30
0.0
 40
4.5
100
AcDbArc
 50
47.65545635581424
 51
90.24444221093082
  0
ARC
  5
136B
330
1B
100
AcDbEntity
 67
     1
  8
2
 62
     0
100
AcDbCircle
 10
194.3259735057625
 20
187.1234858084466
 30
0.0
 40
4.5
100
AcDbArc
 50
227.1665719339339
 51
270.0
  0
ARC
  5
136C
330
1B
100
AcDbEntity
 67
     1
  8
2
 62
     0
100
AcDbCircle
 10
211.1779232140728
 20
187.1234858084466
 30
0.0
 40
6.299999999999999
100
AcDbArc
 50
247.5952651189766
 51
270.0
  0
LINE
  5
136F
330
1B
100
AcDbEntity
 67
     1
  8
2
 62
     0
100
AcDbLine
 10
211.2240434003714
 20
185.0234858084467
 30
0.0
 11
208.7766985073033
 21
185.0234858084467
 31
0.0
  0
ARC
  5
1371
330
1B
100
AcDbEntity
 67
     1
  8
2
 62
     0
100
AcDbCircle
 10
211.99163232544
 20
187.1234858084466
 30
0.0
 40
4.5
100
AcDbArc
 50
259.5860406746098
 51
270.0
  0
ARC
  5
1372
330
1B
100
AcDbEntity
 67
     1
  8
2
 62
     0
100
AcDbCircle
 10
245.5916323254403
 20
187.1234858084466
 30
0.0
 40
6.299999999999999
100
AcDbArc
 50
211.5881355052007
 51
314.4153085971882
  0
LINE
  5
1373
330
1B
100
AcDbEntity
 67
     1
  8
2
 62
     0
100
AcDbLine
 10
254.0176071795957
 20
185.0234858084467
 30
0.0
 11
241.6266887166051
 21
185.0234858084467
 31
0.0
  0
LINE
  5
1374
330
1B
100
AcDbEntity
 67
     1
  8
2
 62
     0
100
AcDbLine
 10
245.4932141023481
 20
182.6234858084466
 30
0.0
 11
258.034500496741
 21
182.6234858084466
 31
0.0
  0
ARC
  5
1375
330
1B
100
AcDbEntity
 67
     1
  8
2
 62
     0
100
AcDbCircle
 10
228.7916323254402
 20
187.1234858084466
 30
0.0
 40
6.299999999999999
100
AcDbArc
 50
211.5881355052007
 51
314.4153085971882
  0
LINE
  5
1376
330
1B
100
AcDbEntity
 67
     1
  8
2
 62
     0
100
AcDbLine
 10
228.7916323254402
 20
182.6234858084466
 30
0.0
 11
241.1825507884303
 21
182.6234858084466
 31
0.0
  0
LINE
  5
1377
330
1B
100
AcDbEntity
 67
     1
  8
2
 62
     0
100
AcDbLine
 10
237.2176071795955
 20
185.0234858084467
 30
0.0
 11
224.8266887166054
 21
185.0234858084467
 31
0.0
  0
ARC
  5
1378
330
1B
100
AcDbEntity
 67
     1
  8
2
 62
     0
100
AcDbCircle
 10
220.4176071795953
 20
180.5234858084467
 30
0.0
 40
4.5
100
AcDbArc
 50
47.65545635581424
 51
90.24444221093082
  0
ARC
  5
1379
330
1B
100
AcDbEntity
 67
     1
  8
2
 62
     0
100
AcDbCircle
 10
220.4176071795953
 20
180.5234858084467
 30
0.0
 40
6.299999999999999
100
AcDbArc
 50
31.837363712227
 51
134.4153085971882
  0
ARC
  5
137A
330
1B
100
AcDbEntity
 67
     1
  8
2
 62
     0
100
AcDbCircle
 10
228.7916323254402
 20
187.1234858084466
 30
0.0
 40
4.5
100
AcDbArc
 50
227.1665719339339
 51
270.0
  0
ARC
  5
137B
330
1B
100
AcDbEntity
 67
     1
  8
2
 62
     0
100
AcDbCircle
 10
237.2176071795955
 20
180.5234858084467
 30
0.0
 40
4.5
100
AcDbArc
 50
47.65545635581424
 51
90.24444221093082
  0
ARC
  5
137C
330
1B
100
AcDbEntity
 67
     1
  8
2
 62
     0
100
AcDbCircle
 10
237.2176071795955
 20
180.5234858084467
 30
0.0
 40
6.299999999999999
100
AcDbArc
 50
31.837363712227
 51
134.4153085971882
  0
ARC
  5
137D
330
1B
100
AcDbEntity
 67
     1
  8
2
 62
     0
100
AcDbCircle
 10
245.5916323254403
 20
187.1234858084466
 30
0.0
 40
4.5
100
AcDbArc
 50
227.1665719339339
 51
270.0
  0
ARC
  5
137E
330
1B
100
AcDbEntity
 67
     1
  8
2
 62
     0
100
AcDbCircle
 10
263.2572911451183
 20
187.1234858084466
 30
0.0
 40
6.299999999999999
100
AcDbArc
 50
263.0017220512028
 51
314.4153085971882
  0
ARC
  5
137F
330
1B
100
AcDbEntity
 67
     1
  8
2
 62
     0
100
AcDbCircle
 10
263.2572911451183
 20
187.1234858084466
 30
0.0
 40
4.5
100
AcDbArc
 50
259.5860406746098
 51
270.0
  0
LINE
  5
1380
330
1B
100
AcDbEntity
 67
     1
  8
2
 62
     0
100
AcDbLine
 10
271.6832659992732
 20
185.0234858084467
 30
0.0
 11
262.4897022200492
 21
185.0234858084467
 31
0.0
  0
ARC
  5
1381
330
1B
100
AcDbEntity
 67
     1
  8
2
 62
     0
100
AcDbCircle
 10
254.0176071795957
 20
180.5234858084467
 30
0.0
 40
4.5
100
AcDbArc
 50
47.1665719339339
 51
89.99999999999998
  0
ARC
  5
1382
330
1B
100
AcDbEntity
 67
     1
  8
2
 62
     0
100
AcDbCircle
 10
254.0176071795957
 20
180.5234858084467
 30
0.0
 40
6.299999999999999
100
AcDbArc
 50
31.58813550520072
 51
134.4153085971882
  0
LINE
  5
1383
330
1B
100
AcDbEntity
 67
     1
  8
2
 62
     0
100
AcDbLine
 10
262.4897022200492
 20
185.0234858084467
 30
0.0
 11
258.4266887166053
 21
185.0234858084467
 31
0.0
  0
ARC
  5
1384
330
1B
100
AcDbEntity
 67
     1
  8
2
 62
     0
100
AcDbCircle
 10
262.4435820337506
 20
187.1234858084466
 30
0.0
 40
4.5
100
AcDbArc
 50
227.1665719339339
 51
270.2533222070099
  0
ARC
  5
1385
330
1B
100
AcDbEntity
 67
     1
  8
2
 62
     0
100
AcDbCircle
 10
262.4435820337506
 20
187.1234858084466
 30
0.0
 40
6.299999999999999
100
AcDbArc
 50
211.5881355052007
 51
270.0
  0
LINE
  5
1386
330
1B
100
AcDbEntity
 67
     1
  8
2
 62
     0
100
AcDbLine
 10
263.2572911451183
 20
182.6234858084466
 30
0.0
 11
275.6482096081084
 21
182.6234858084466
 31
0.0
  0
ARC
  5
1387
330
1B
100
AcDbEntity
 67
     1
  8
2
 62
     0
100
AcDbCircle
 10
271.6832659992732
 20
180.5234858084467
 30
0.0
 40
6.299999999999999
100
AcDbArc
 50
31.837363712227
 51
134.4153085971882
  0
ARC
  5
1388
330
1B
100
AcDbEntity
 67
     1
  8
2
 62
     0
100
AcDbCircle
 10
271.6832659992732
 20
180.5234858084467
 30
0.0
 40
4.5
100
AcDbArc
 50
47.65545635581424
 51
90.24444221093082
  0
LINE
  5
138F
330
1B
100
AcDbEntity
 67
     1
  8
2
 62
     0
100
AcDbLine
 10
280.057291145118
 20
182.6234858084466
 30
0.0
 11
290.4187612612724
 21
182.6234858084466
 31
0.0
  0
ARC
  5
1390
330
1B
100
AcDbEntity
 67
     1
  8
2
 62
     0
100
AcDbCircle
 10
288.4832659992733
 20
180.5234858084467
 30
0.0
 40
6.299999999999999
100
AcDbArc
 50
72.10813709270815
 51
134.4153085971882
  0
ARC
  5
1391
330
1B
100
AcDbEntity
 67
     1
  8
2
 62
     0
100
AcDbCircle
 10
288.4832659992733
 20
180.5234858084467
 30
0.0
 40
4.5
100
AcDbArc
 50
64.52545508466835
 51
90.24444221093082
  0
LINE
  5
1395
330
1B
100
AcDbEntity
 67
     1
  8
0
100
AcDbLine
 10
108.6927257610154
 20
185.0234858084467
 30
0.0
 11
106.4382035409753
 21
185.0234858084467
 31
0.0
  0
LINE
  5
1396
330
1B
100
AcDbEntity
 67
     1
  8
0
100
AcDbLine
 10
109.0566260865605
 20
182.6234858084467
 30
0.0
 11
106.535858921337
 21
182.6234858084467
 31
0.0
  0
ARC
  5
1399
330
1B
100
AcDbEntity
 67
     1
  8
2
 62
     0
100
AcDbCircle
 10
202.7519483599174
 20
180.5234858084467
 30
0.0
 40
6.299999999999999
100
AcDbArc
 50
111.057117732452
 51
134.4153085971882
  0
LINE
  5
139A
330
1B
100
AcDbEntity
 67
     1
  8
2
 62
     0
100
AcDbLine
 10
191.0750145035318
 20
85.95118366391593
 30
0.0
 11
200.4883681209014
 21
85.95118366391593
 31
0.0
  0
ARC
  5
139B
330
1B
100
AcDbEntity
 67
     1
  8
2
 62
     0
100
AcDbCircle
 10
131.5337487611015
 20
83.85118366391607
 30
0.0
 40
6.299999999999999
100
AcDbArc
 50
31.837363712227
 51
134.4153085971882
  0
LINE
  5
139C
330
1B
100
AcDbEntity
 67
     1
  8
2
 62
     0
100
AcDbLine
 10
123.1077739069464
 20
85.95118366391593
 30
0.0
 11
135.4986923699366
 21
85.95118366391593
 31
0.0
  0
ARC
  5
139D
330
1B
100
AcDbEntity
 67
     1
  8
2
 62
     0
100
AcDbCircle
 10
139.9077739069464
 20
90.45118366391596
 30
0.0
 40
6.299999999999999
100
AcDbArc
 50
211.5881355052007
 51
314.4153085971882
  0
ARC
  5
139F
330
1B
100
AcDbEntity
 67
     1
  8
2
 62
     0
100
AcDbCircle
 10
114.7337487611016
 20
83.85118366391607
 30
0.0
 40
6.299999999999999
100
AcDbArc
 50
31.837363712227
 51
134.4153085971882
  0
ARC
  5
13A0
330
1B
100
AcDbEntity
 67
     1
  8
2
 62
     0
100
AcDbCircle
 10
123.1077739069464
 20
90.45118366391596
 30
0.0
 40
6.299999999999999
100
AcDbArc
 50
211.5881355052007
 51
314.4153085971882
  0
LINE
  5
13A1
330
1B
100
AcDbEntity
 67
     1
  8
2
 62
     0
100
AcDbLine
 10
106.3077739069462
 20
85.95118366391593
 30
0.0
 11
118.6986923699366
 21
85.95118366391593
 31
0.0
  0
LINE
  5
13A2
330
1B
100
AcDbEntity
 67
     1
  8
2
 62
     0
100
AcDbLine
 10
114.7337487611016
 20
88.35118366391602
 30
0.0
 11
105.5401849818774
 21
88.35118366391602
 31
0.0
  0
ARC
  5
13A3
330
1B
100
AcDbEntity
 67
     1
  8
2
 62
     0
100
AcDbCircle
 10
106.3077739069462
 20
90.45118366391596
 30
0.0
 40
6.299999999999999
100
AcDbArc
 50
263.0017220512028
 51
314.4153085971882
  0
LINE
  5
13A5
330
1B
100
AcDbEntity
 67
     1
  8
0
100
AcDbLine
 10
105.9040853074225
 20
85.95118366391606
 30
0.0
 11
103.383318142199
 21
85.95118366391606
 31
0.0
  0
LINE
  5
13A6
330
1B
100
AcDbEntity
 67
     1
  8
0
100
AcDbLine
 10
105.5401849818774
 20
88.35118366391602
 30
0.0
 11
103.2856627618373
 21
88.35118366391602
 31
0.0
  0
ARC
  5
13A8
330
1B
100
AcDbEntity
 67
     1
  8
2
 62
     0
100
AcDbCircle
 10
114.7337487611016
 20
83.85118366391607
 30
0.0
 40
4.5
100
AcDbArc
 50
47.65545635581424
 51
90.24444221093082
  0
LINE
  5
13A9
330
1B
100
AcDbEntity
 67
     1
  8
2
 62
     0
100
AcDbLine
 10
131.5337487611015
 20
88.35118366391602
 30
0.0
 11
119.1428302981111
 21
88.35118366391602
 31
0.0
  0
ARC
  5
13AA
330
1B
100
AcDbEntity
 67
     1
  8
2
 62
     0
100
AcDbCircle
 10
123.1077739069464
 20
90.45118366391596
 30
0.0
 40
4.5
100
AcDbArc
 50
227.1665719339339
 51
270.0
  0
ARC
  5
13AB
330
1B
100
AcDbEntity
 67
     1
  8
2
 62
     0
100
AcDbCircle
 10
131.5337487611015
 20
83.85118366391607
 30
0.0
 40
4.5
100
AcDbArc
 50
47.65545635581424
 51
90.24444221093082
  0
ARC
  5
13AC
330
1B
100
AcDbEntity
 67
     1
  8
2
 62
     0
100
AcDbCircle
 10
165.9994075807795
 20
83.85118366391607
 30
0.0
 40
4.5
100
AcDbArc
 50
47.65545635581424
 51
90.24444221093082
  0
LINE
  5
13AD
330
1B
100
AcDbEntity
 67
     1
  8
2
 62
     0
100
AcDbLine
 10
157.5734327266242
 20
85.95118366391593
 30
0.0
 11
169.9643511896143
 21
85.95118366391593
 31
0.0
  0
ARC
  5
13AE
330
1B
100
AcDbEntity
 67
     1
  8
2
 62
     0
100
AcDbCircle
 10
165.9994075807795
 20
83.85118366391607
 30
0.0
 40
6.299999999999999
100
AcDbArc
 50
31.837363712227
 51
134.4153085971882
  0
ARC
  5
13AF
330
1B
100
AcDbEntity
 67
     1
  8
2
 62
     0
100
AcDbCircle
 10
148.3337487611015
 20
83.85118366391607
 30
0.0
 40
6.299999999999999
100
AcDbArc
 50
31.58813550520072
 51
134.4153085971882
  0
LINE
  5
13B0
330
1B
100
AcDbEntity
 67
     1
  8
2
 62
     0
100
AcDbLine
 10
139.8093556838539
 20
85.95118366391593
 30
0.0
 11
152.350642078247
 21
85.95118366391593
 31
0.0
  0
ARC
  5
13B1
330
1B
100
AcDbEntity
 67
     1
  8
2
 62
     0
100
AcDbCircle
 10
156.7597236152565
 20
90.45118366391596
 30
0.0
 40
6.299999999999999
100
AcDbArc
 50
211.5881355052007
 51
270.0
  0
LINE
  5
13B2
330
1B
100
AcDbEntity
 67
     1
  8
2
 62
     0
100
AcDbLine
 10
148.3337487611015
 20
88.35118366391602
 30
0.0
 11
135.9428302981114
 21
88.35118366391602
 31
0.0
  0
ARC
  5
13B3
330
1B
100
AcDbEntity
 67
     1
  8
2
 62
     0
100
AcDbCircle
 10
139.9077739069464
 20
90.45118366391596
 30
0.0
 40
4.5
100
AcDbArc
 50
227.1665719339339
 51
270.0
  0
ARC
  5
13B4
330
1B
100
AcDbEntity
 67
     1
  8
2
 62
     0
100
AcDbCircle
 10
148.3337487611015
 20
83.85118366391607
 30
0.0
 40
4.5
100
AcDbArc
 50
47.1665719339339
 51
89.99999999999998
  0
LINE
  5
13B5
330
1B
100
AcDbEntity
 67
     1
  8
2
 62
     0
100
AcDbLine
 10
165.9994075807795
 20
88.35118366391602
 30
0.0
 11
156.8058438015556
 21
88.35118366391602
 31
0.0
  0
ARC
  5
13B6
330
1B
100
AcDbEntity
 67
     1
  8
2
 62
     0
100
AcDbCircle
 10
157.5734327266242
 20
90.45118366391596
 30
0.0
 40
6.299999999999999
100
AcDbArc
 50
263.0017220512028
 51
314.4153085971882
  0
ARC
  5
13B7
330
1B
100
AcDbEntity
 67
     1
  8
2
 62
     0
100
AcDbCircle
 10
157.5734327266242
 20
90.45118366391596
 30
0.0
 40
4.5
100
AcDbArc
 50
259.5860406746098
 51
270.0
  0
ARC
  5
13B8
330
1B
100
AcDbEntity
 67
     1
  8
2
 62
     0
100
AcDbCircle
 10
156.7597236152565
 20
90.45118366391596
 30
0.0
 40
4.5
100
AcDbArc
 50
227.1665719339339
 51
270.2533222070099
  0
LINE
  5
13B9
330
1B
100
AcDbEntity
 67
     1
  8
2
 62
     0
100
AcDbLine
 10
156.8058438015556
 20
88.35118366391602
 30
0.0
 11
152.7428302981112
 21
88.35118366391602
 31
0.0
  0
ARC
  5
13BA
330
1B
100
AcDbEntity
 67
     1
  8
2
 62
     0
100
AcDbCircle
 10
182.7994075807793
 20
83.85118366391603
 30
0.0
 40
4.5
100
AcDbArc
 50
47.65545635581424
 51
90.24444221093082
  0
ARC
  5
13BB
330
1B
100
AcDbEntity
 67
     1
  8
2
 62
     0
100
AcDbCircle
 10
182.7994075807793
 20
83.85118366391603
 30
0.0
 40
6.299999999999999
100
AcDbArc
 50
31.837363712227
 51
134.4153085971882
  0
LINE
  5
13BC
330
1B
100
AcDbEntity
 67
     1
  8
2
 62
     0
100
AcDbLine
 10
174.3734327266244
 20
85.95118366391593
 30
0.0
 11
186.7643511896145
 21
85.95118366391593
 31
0.0
  0
LINE
  5
13BD
330
1B
100
AcDbEntity
 67
     1
  8
2
 62
     0
100
AcDbLine
 10
182.7994075807793
 20
88.35118366391602
 30
0.0
 11
170.4084891177891
 21
88.35118366391602
 31
0.0
  0
ARC
  5
13BE
330
1B
100
AcDbEntity
 67
     1
  8
2
 62
     0
100
AcDbCircle
 10
174.3734327266244
 20
90.45118366391596
 30
0.0
 40
6.299999999999999
100
AcDbArc
 50
211.5881355052007
 51
314.4153085971882
  0
ARC
  5
13BF
330
1B
100
AcDbEntity
 67
     1
  8
2
 62
     0
100
AcDbCircle
 10
174.3734327266244
 20
90.45118366391596
 30
0.0
 40
4.5
100
AcDbArc
 50
227.1665719339339
 51
270.0
  0
LINE
  5
13C0
330
1B
100
AcDbEntity
 67
     1
  8
2
 62
     0
100
AcDbLine
 10
199.5994075807795
 20
88.35118366391602
 30
0.0
 11
187.2084891177893
 21
88.35118366391602
 31
0.0
  0
ARC
  5
13C1
330
1B
100
AcDbEntity
 67
     1
  8
2
 62
     0
100
AcDbCircle
 10
191.1734327266245
 20
90.45118366391596
 30
0.0
 40
6.299999999999999
100
AcDbArc
 50
211.5881355052007
 51
314.4153085971882
  0
ARC
  5
13C2
330
1B
100
AcDbEntity
 67
     1
  8
2
 62
     0
100
AcDbCircle
 10
191.1734327266245
 20
90.45118366391596
 30
0.0
 40
4.5
100
AcDbArc
 50
227.1665719339339
 51
270.0
  0
ARC
  5
13C3
330
1B
100
AcDbEntity
 67
     1
  8
2
 62
     0
100
AcDbCircle
 10
199.5994075807795
 20
83.85118366391603
 30
0.0
 40
4.5
100
AcDbArc
 50
87.6151287830639
 51
89.99999999999998
  0
ARC
  5
13C4
330
1B
100
AcDbEntity
 67
     1
  8
2
 62
     0
100
AcDbCircle
 10
199.5994075807795
 20
83.85118366391603
 30
0.0
 40
6.299999999999999
100
AcDbArc
 50
96.39628301203734
 51
134.4153085971882
  0
LINE
  5
13C5
330
1B
100
AcDbEntity
 67
     1
  8
0
100
AcDbLine
 10
103.2856627618373
 20
88.35118366391602
 30
0.0
 11
103.2856627618373
 21
85.95118366391607
 31
0.0
  0
ARC
  5
13C9
330
1B
100
AcDbEntity
 67
     1
  8
2
 62
     0
100
AcDbCircle
 10
271.6832659992732
 20
83.85118366391612
 30
0.0
 40
6.299999999999999
100
AcDbArc
 50
31.837363712227
 51
134.4153085971882
  0
LINE
  5
13CA
330
1B
100
AcDbEntity
 67
     1
  8
2
 62
     0
100
AcDbLine
 10
263.2572911451183
 20
85.95118366391602
 30
0.0
 11
275.6482096081084
 21
85.95118366391602
 31
0.0
  0
LINE
  5
13CB
330
1B
100
AcDbEntity
 67
     1
  8
2
 62
     0
100
AcDbLine
 10
271.6832659992732
 20
88.35118366391611
 30
0.0
 11
262.4897022200492
 21
88.35118366391611
 31
0.0
  0
ARC
  5
13CC
330
1B
100
AcDbEntity
 67
     1
  8
2
 62
     0
100
AcDbCircle
 10
237.2176071795955
 20
83.85118366391612
 30
0.0
 40
6.299999999999999
100
AcDbArc
 50
31.837363712227
 51
134.4153085971882
  0
LINE
  5
13CD
330
1B
100
AcDbEntity
 67
     1
  8
2
 62
     0
100
AcDbLine
 10
228.7916323254402
 20
85.95118366391602
 30
0.0
 11
241.1825507884303
 21
85.95118366391602
 31
0.0
  0
LINE
  5
13CE
330
1B
100
AcDbEntity
 67
     1
  8
2
 62
     0
100
AcDbLine
 10
237.2176071795955
 20
88.35118366391611
 30
0.0
 11
224.8266887166054
 21
88.35118366391611
 31
0.0
  0
ARC
  5
13CF
330
1B
100
AcDbEntity
 67
     1
  8
2
 62
     0
100
AcDbCircle
 10
220.4176071795953
 20
83.85118366391612
 30
0.0
 40
6.299999999999999
100
AcDbArc
 50
31.837363712227
 51
134.4153085971882
  0
ARC
  5
13D0
330
1B
100
AcDbEntity
 67
     1
  8
2
 62
     0
100
AcDbCircle
 10
220.4176071795953
 20
83.85118366391612
 30
0.0
 40
4.5
100
AcDbArc
 50
47.65545635581424
 51
90.24444221093082
  0
LINE
  5
13D1
330
1B
100
AcDbEntity
 67
     1
  8
2
 62
     0
100
AcDbLine
 10
211.99163232544
 20
85.95118366391602
 30
0.0
 11
224.3825507884306
 21
85.95118366391602
 31
0.0
  0
LINE
  5
13D2
330
1B
100
AcDbEntity
 67
     1
  8
2
 62
     0
100
AcDbLine
 10
220.4176071795953
 20
88.35118366391611
 30
0.0
 11
211.2240434003714
 21
88.35118366391611
 31
0.0
  0
ARC
  5
13D3
330
1B
100
AcDbEntity
 67
     1
  8
2
 62
     0
100
AcDbCircle
 10
211.99163232544
 20
90.45118366391605
 30
0.0
 40
6.299999999999999
100
AcDbArc
 50
263.0017220512028
 51
314.4153085971882
  0
ARC
  5
13D4
330
1B
100
AcDbEntity
 67
     1
  8
2
 62
     0
100
AcDbCircle
 10
211.1779232140728
 20
90.45118366391605
 30
0.0
 40
6.299999999999999
100
AcDbArc
 50
247.5952651189766
 51
270.0
  0
ARC
  5
13D5
330
1B
100
AcDbEntity
 67
     1
  8
2
 62
     0
100
AcDbCircle
 10
211.99163232544
 20
90.45118366391605
 30
0.0
 40
4.5
100
AcDbArc
 50
259.5860406746098
 51
270.0
  0
ARC
  5
13D6
330
1B
100
AcDbEntity
 67
     1
  8
2
 62
     0
100
AcDbCircle
 10
211.1779232140728
 20
90.45118366391605
 30
0.0
 40
4.5
100
AcDbArc
 50
237.7506114527464
 51
270.2533222070099
  0
LINE
  5
13D7
330
1B
100
AcDbEntity
 67
     1
  8
2
 62
     0
100
AcDbLine
 10
211.2240434003714
 20
88.35118366391611
 30
0.0
 11
208.7766985073033
 21
88.35118366391611
 31
0.0
  0
ARC
  5
13D8
330
1B
100
AcDbEntity
 67
     1
  8
2
 62
     0
100
AcDbCircle
 10
228.7916323254402
 20
90.45118366391603
 30
0.0
 40
4.5
100
AcDbArc
 50
227.1665719339339
 51
270.0
  0
ARC
  5
13D9
330
1B
100
AcDbEntity
 67
     1
  8
2
 62
     0
100
AcDbCircle
 10
228.7916323254402
 20
90.45118366391603
 30
0.0
 40
6.299999999999999
100
AcDbArc
 50
211.5881355052007
 51
314.4153085971882
  0
ARC
  5
13DA
330
1B
100
AcDbEntity
 67
     1
  8
2
 62
     0
100
AcDbCircle
 10
254.0176071795957
 20
83.85118366391612
 30
0.0
 40
6.299999999999999
100
AcDbArc
 50
31.58813550520072
 51
134.4153085971882
  0
LINE
  5
13DB
330
1B
100
AcDbEntity
 67
     1
  8
2
 62
     0
100
AcDbLine
 10
245.4932141023481
 20
85.95118366391602
 30
0.0
 11
258.034500496741
 21
85.95118366391602
 31
0.0
  0
LINE
  5
13DC
330
1B
100
AcDbEntity
 67
     1
  8
2
 62
     0
100
AcDbLine
 10
254.0176071795957
 20
88.35118366391611
 30
0.0
 11
241.6266887166051
 21
88.35118366391611
 31
0.0
  0
ARC
  5
13DD
330
1B
100
AcDbEntity
 67
     1
  8
2
 62
     0
100
AcDbCircle
 10
245.5916323254403
 20
90.45118366391603
 30
0.0
 40
4.5
100
AcDbArc
 50
227.1665719339339
 51
270.0
  0
ARC
  5
13DE
330
1B
100
AcDbEntity
 67
     1
  8
2
 62
     0
100
AcDbCircle
 10
245.5916323254403
 20
90.45118366391603
 30
0.0
 40
6.299999999999999
100
AcDbArc
 50
211.5881355052007
 51
314.4153085971882
  0
ARC
  5
13DF
330
1B
100
AcDbEntity
 67
     1
  8
2
 62
     0
100
AcDbCircle
 10
237.2176071795955
 20
83.85118366391612
 30
0.0
 40
4.5
100
AcDbArc
 50
47.65545635581424
 51
90.24444221093082
  0
ARC
  5
13E0
330
1B
100
AcDbEntity
 67
     1
  8
2
 62
     0
100
AcDbCircle
 10
262.4435820337506
 20
90.45118366391603
 30
0.0
 40
4.5
100
AcDbArc
 50
227.1665719339339
 51
270.2533222070099
  0
LINE
  5
13E1
330
1B
100
AcDbEntity
 67
     1
  8
2
 62
     0
100
AcDbLine
 10
262.4897022200492
 20
88.35118366391611
 30
0.0
 11
258.4266887166053
 21
88.35118366391611
 31
0.0
  0
ARC
  5
13E2
330
1B
100
AcDbEntity
 67
     1
  8
2
 62
     0
100
AcDbCircle
 10
262.4435820337506
 20
90.45118366391603
 30
0.0
 40
6.299999999999999
100
AcDbArc
 50
211.5881355052007
 51
270.0
  0
ARC
  5
13E3
330
1B
100
AcDbEntity
 67
     1
  8
2
 62
     0
100
AcDbCircle
 10
254.0176071795957
 20
83.85118366391612
 30
0.0
 40
4.5
100
AcDbArc
 50
47.1665719339339
 51
89.99999999999998
  0
ARC
  5
13E4
330
1B
100
AcDbEntity
 67
     1
  8
2
 62
     0
100
AcDbCircle
 10
263.2572911451183
 20
90.45118366391603
 30
0.0
 40
4.5
100
AcDbArc
 50
259.5860406746098
 51
270.0
  0
ARC
  5
13E5
330
1B
100
AcDbEntity
 67
     1
  8
2
 62
     0
100
AcDbCircle
 10
263.2572911451183
 20
90.45118366391603
 30
0.0
 40
6.299999999999999
100
AcDbArc
 50
263.0017220512028
 51
314.4153085971882
  0
LINE
  5
13E6
330
1B
100
AcDbEntity
 67
     1
  8
2
 62
     0
100
AcDbLine
 10
288.4832659992733
 20
88.35118366391611
 30
0.0
 11
276.0923475362832
 21
88.35118366391611
 31
0.0
  0
LINE
  5
13E7
330
1B
100
AcDbEntity
 67
     1
  8
2
 62
     0
100
AcDbLine
 10
280.057291145118
 20
85.95118366391602
 30
0.0
 11
290.4187612612724
 21
85.95118366391602
 31
0.0
  0
ARC
  5
13E8
330
1B
100
AcDbEntity
 67
     1
  8
2
 62
     0
100
AcDbCircle
 10
288.4832659992733
 20
83.85118366391612
 30
0.0
 40
6.299999999999999
100
AcDbArc
 50
72.10813709270815
 51
134.4153085971882
  0
ARC
  5
13E9
330
1B
100
AcDbEntity
 67
     1
  8
2
 62
     0
100
AcDbCircle
 10
280.057291145118
 20
90.45118366391603
 30
0.0
 40
4.5
100
AcDbArc
 50
227.1665719339339
 51
270.0
  0
ARC
  5
13EA
330
1B
100
AcDbEntity
 67
     1
  8
2
 62
     0
100
AcDbCircle
 10
280.057291145118
 20
90.45118366391603
 30
0.0
 40
6.299999999999999
100
AcDbArc
 50
211.5881355052007
 51
314.4153085971882
  0
ARC
  5
13EB
330
1B
100
AcDbEntity
 67
     1
  8
2
 62
     0
100
AcDbCircle
 10
271.6832659992732
 20
83.85118366391612
 30
0.0
 40
4.5
100
AcDbArc
 50
47.65545635581424
 51
90.24444221093082
  0
ARC
  5
13EC
330
1B
100
AcDbEntity
 67
     1
  8
2
 62
     0
100
AcDbCircle
 10
288.4832659992733
 20
83.85118366391612
 30
0.0
 40
4.5
100
AcDbArc
 50
64.52545508466835
 51
90.24444221093082
  0
LINE
  5
13F2
330
1B
100
AcDbEntity
 67
     1
  8
0
100
AcDbLine
 10
290.4187612612724
 20
85.95118366391602
 30
0.0
 11
290.4187612612724
 21
86.15118366391603
 31
0.0
  0
LINE
  5
13F3
330
1B
100
AcDbEntity
 67
     1
  8
0
100
AcDbLine
 10
290.4187612612724
 20
85.95118366391602
 30
0.0
 11
290.4187612612724
 21
87.15118366391603
 31
0.0
  0
ARC
  5
13F6
330
1B
100
AcDbEntity
 67
     1
  8
2
 62
     0
100
AcDbCircle
 10
211.1779232140728
 20
187.1234858084466
 30
0.0
 40
4.5
100
AcDbArc
 50
237.7506114527465
 51
270.2533222070099
  0
LEADER
  5
13F7
330
1B
100
AcDbEntity
 67
     1
  8
0
100
AcDbLeader
  3
ISO-25
 73
     0
 40
3.000000000000001
 41
34.39999999999999
 76
     3
 10
135.6000167984052
 20
186.7568719265759
 30
0.0
 10
145.840619202577
 20
197.154854630181
 30
0.0
 10
147.9112990497456
 20
197.154854630181
 30
0.0
340
13F8
213
0.0
223
-1.5
233
0.0
1001
ACAD
1000
DSTYLE
1002
{
1070
   147
1040
0.625
1070
    77
1070
     0
1002
}
  0
MTEXT
  5
13F8
102
{ACAD_REACTORS
330
13F7
102
}
330
1B
100
AcDbEntity
 67
     1
  8
0
100
AcDbMText
 10
148.5362990497455
 20
198.654854630181
 30
0.0
 40
3.0
 41
0.0
 71
     1
 72
     1
  1
%%c６樹脂被覆ワイヤー
 73
     1
 44
1.0
  0
DIMENSION
  5
13F9
330
1B
100
AcDbEntity
 67
     1
  8
0
100
AcDbDimension
  2
*D11
 10
203.7872905003057
 20
182.6234858084466
 30
0.0
 11
201.6622905003057
 21
173.4984858084467
 31
0.0
 70
    33
  1
%%c2.4
 71
     5
 42
2.400000000000119
  3
ISO-25
100
AcDbAlignedDimension
 13
200.4883681209014
 23
185.0234858084467
 33
0.0
 14
200.4883681209014
 24
182.6234858084466
 34
0.0
  0
DIMENSION
  5
1408
330
1B
100
AcDbEntity
 67
     1
  8
0
100
AcDbDimension
  2
*D12
 10
189.8159716562649
 20
180.8234858084467
 30
0.0
 11
187.6909716562649
 21
175.6984858084467
 31
0.0
 70
    33
  1
%%c6
 71
     5
 42
6.0
  3
ISO-25
100
AcDbAlignedDimension
 13
185.9519483599173
 23
186.8234858084467
 33
0.0
 14
185.9519483599173
 24
180.8234858084467
 34
0.0
  0
MTEXT
  5
142A
330
1B
100
AcDbEntity
 67
     1
  8
0
100
AcDbMText
 10
202.628223962205
 20
188.7010725941065
 30
0.0
 40
2.5
 41
80.92
 71
     1
 72
     5
  1
（芯材 SUS%%c2)
 11
0.0000000000000001
 21
1.0
 31
0.0
 73
     1
 44
1.0
  0
ENDSEC
  0
SECTION
  2
OBJECTS
  0
DICTIONARY
  5
C
330
0
100
AcDbDictionary
281
     1
  3
ACAD_GROUP
350
D
  3
ACAD_IMAGE_VARS
350
2B
  3
ACAD_LAYOUT
350
1A
  3
ACAD_MLINESTYLE
350
17
  3
ACAD_PLOTSETTINGS
350
19
  3
ACAD_PLOTSTYLENAME
350
E
  3
AcadDim
350
BD4
  0
DICTIONARY
  5
D
102
{ACAD_REACTORS
330
C
102
}
330
C
100
AcDbDictionary
281
     1
  0
RASTERVARIABLES
  5
2B
102
{ACAD_REACTORS
330
C
102
}
330
C
100
AcDbRasterVariables
 90
        0
 70
     1
 71
     1
 72
     1
  0
DICTIONARY
  5
1A
102
{ACAD_REACTORS
330
C
102
}
330
C
100
AcDbDictionary
281
     1
  3
Model
350
22
  3
ﾚｲｱｳﾄ1
350
1E
  3
ﾚｲｱｳﾄ2
350
26
  0
DICTIONARY
  5
17
102
{ACAD_REACTORS
330
C
102
}
330
C
100
AcDbDictionary
281
     1
  3
Standard
350
18
  0
DICTIONARY
  5
19
102
{ACAD_REACTORS
330
C
102
}
330
C
100
AcDbDictionary
281
     1
  0
ACDBDICTIONARYWDFLT
  5
E
102
{ACAD_REACTORS
330
C
102
}
330
C
100
AcDbDictionary
281
     1
  3
Normal
350
F
100
AcDbDictionaryWithDefault
340
F
  0
XRECORD
  5
BD4
102
{ACAD_REACTORS
330
C
102
}
330
C
100
AcDbXrecord
280
     1
 90
   990106
  3

 60
     0
 61
     0
 62
     1
 63
     3
 64
     0
 65
     0
 66
     0
 67
     3
 68
     1
 69
     0
 70
     0
 71
     0
 72
     0
 40
22.13170009420243
170
     0
340
13F8
  0
LAYOUT
  5
22
102
{ACAD_REACTORS
330
1A
102
}
330
1A
100
AcDbPlotSettings
  1

  2
RICOH imagio Neo C380 RPCS
  4

  6

 40
0.0
 41
0.0
 42
0.0
 43
0.0
 44
0.0
 45
0.0
 46
0.0
 47
0.0
 48
0.0
 49
0.0
140
0.0
141
0.0
142
1.0
143
1.0
 70
  1712
 72
     0
 73
     0
 74
     0
  7

 75
     0
147
1.0
148
0.0
149
0.0
100
AcDbLayout
  1
Model
 70
     1
 71
     0
 10
0.0
 20
0.0
 11
12.0
 21
9.0
 12
0.0
 22
0.0
 32
0.0
 14
0.0
 24
0.0
 34
0.0
 15
0.0
 25
0.0
 35
0.0
146
0.0
 13
0.0
 23
0.0
 33
0.0
 16
1.0
 26
0.0
 36
0.0
 17
0.0
 27
1.0
 37
0.0
 76
     0
330
1F
  0
LAYOUT
  5
1E
102
{ACAD_REACTORS
330
1A
102
}
330
1A
100
AcDbPlotSettings
  1

  2
RICOH imagio MP C3500 RPCS
  4
A3
  6

 40
5.873749732971191
 41
5.873747825622558
 42
5.873748779296875
 43
5.873748779296875
 44
296.9259948730469
 45
419.9466552734374
 46
0.0
 47
0.0
 48
0.0
 49
0.0
140
0.0
141
0.0
142
1.0
143
1.0
 70
   688
 72
     1
 73
     1
 74
     5
  7

 75
    16
147
1.0
148
0.0
149
0.0
100
AcDbLayout
  1
ﾚｲｱｳﾄ1
 70
     1
 71
     1
 10
-5.873748779296875
 20
-5.873749732971191
 11
414.0729064941406
 21
291.0522451400757
 12
0.0
 22
0.0
 32
0.0
 14
1.042221639059562
 24
1.08829855961801
 34
0.0
 15
407.757958684845
 25
284.1844718556203
 35
0.0
146
0.0
 13
0.0
 23
0.0
 33
0.0
 16
1.0
 26
0.0
 36
0.0
 17
0.0
 27
1.0
 37
0.0
 76
     0
330
1B
331
2F
  0
LAYOUT
  5
26
102
{ACAD_REACTORS
330
1A
102
}
330
1A
100
AcDbPlotSettings
  1

  2
RICOH imagio Neo C380 RPCS
  4

  6

 40
0.0
 41
0.0
 42
0.0
 43
0.0
 44
0.0
 45
0.0
 46
0.0
 47
0.0
 48
0.0
 49
0.0
140
0.0
141
0.0
142
1.0
143
1.0
 70
   688
 72
     0
 73
     1
 74
     5
  7

 75
    16
147
1.0
148
0.0
149
0.0
100
AcDbLayout
  1
ﾚｲｱｳﾄ2
 70
     1
 71
     2
 10
0.0
 20
0.0
 11
0.0
 21
0.0
 12
0.0
 22
0.0
 32
0.0
 14
0.0
 24
0.0
 34
0.0
 15
0.0
 25
0.0
 35
0.0
146
0.0
 13
0.0
 23
0.0
 33
0.0
 16
1.0
 26
0.0
 36
0.0
 17
0.0
 27
1.0
 37
0.0
 76
     0
330
23
331
49D
  0
MLINESTYLE
  5
18
102
{ACAD_REACTORS
330
17
102
}
330
17
100
AcDbMlineStyle
  2
STANDARD
 70
     0
  3

 62
   256
 51
90.0
 52
90.0
 71
     2
 49
0.5
 62
   256
  6
BYLAYER
 49
-0.5
 62
   256
  6
BYLAYER
  0
ACDBPLACEHOLDER
  5
F
102
{ACAD_REACTORS
330
E
102
}
330
E
  0
ENDSEC
  0
EOF
